EXSite.pl - Portal ze wszystkim Mamy tutaj wszystko

NIE MASZ JESZCZE KONTA? ZAREJESTRUJ SIĘ ZA DARMO!   
Przypomnij hasło X

Kobieta na skraju dojrzałości / Young Adult (2011) CAM.XviD-BBnRG

Dodał: tuxlive 22 Luty 2012 21:16



Kobieta na skraju dojrzałości / Young Adult (2011) CAM.XviD-BBnRG


Kobieta na skraju dojrzałości / Young Adult (2011) CAM.XviD-BBnRG




## Informacje ##

gatunek: Dramat, Komedia
produkcja: USA
reżyseria: Jason Reitman
scenariusz: Diablo Cody


## Opis Filmu ##



Film opowiada o trzydziestokilkuletniej rozwódce, autorce powieści dla nastolatków, która postanawia wrócić do rodzinnego miasteczka i odzyskać serce swojego byłego chłopaka. Nie będzie to jednak takie łatwe, ponieważ mężczyzna jest już żonaty i ma dwójkę dzieci.




## Screeny ##



## Informacje Techniczne ##



General Information
Complete name                            : Young Adult (2011) CAM XviD BBnRG.avi
Format                                   : AVI
Format/Info                              : Audio Video Interleave
File size                                : 1.22 GiB
Duration                                 : 1h 28mn
Overall bit rate                         : 1 962 Kbps
Writing library                          : VirtualDub build 32842/release

Video
ID                                       : 0
Format                                   : MPEG-4 Visual
Format profile                           : Advanced Simple@L5
Format settings, BVOP                    : 2
Format settings, QPel                    : No
Format settings, GMC                     : No warppoints
Format settings, Matrix                  : Default (H.263)
Muxing mode                              : Packed bitstream
Codec ID                                 : XVID
Codec ID/Hint                            : XviD
Duration                                 : 1h 28mn
Bit rate                                 : 1 554 Kbps
Width                                    : 720 pixels
Height                                   : 336 pixels
Display aspect ratio                     : 2.2:1
Frame rate                               : 59.940 fps
Color space                              : YUV
Chroma subsampling                       : 4:2:0
Bit depth                                : 8 bits
Scan type                                : Progressive
Compression mode                         : Lossy
Bits/(Pixel*Frame)                       : 0.107
Stream size                              : 986 MiB (79%)
Writing library                          : XviD 64

Audio
ID                                       : 1
Format                                   : AC-3
Format/Info                              : Audio Coding 3
Mode extension                           : CM (complete main)
Codec ID                                 : 2000
Duration                                 : 1h 28mn
Bit rate mode                            : Constant
Bit rate                                 : 384 Kbps
Channel(s)                               : 2 channels
Channel positions                        : Front: L R
Sampling rate                            : 44.1 KHz
Bit depth                                : 16 bits
Compression mode                         : Lossy
Stream size                              : 244 MiB (20%)
Alignment                                : Split accross interleaves
Interleave, duration                     : 17 ms (1.00 video frame)
Interleave, preload duration             : 500 ms





## Dane Techniczne Uploadu ##

Wielkość upload: 1220 Mb
Wilekość parta: 750 Mb
Ilość partów: 2
Kompresja: 0%
Dane naprawcze: Brak
hasło: brak



DOWNLOAD 750MB PART'S!
Bez hasła || 1% danych naprawczych || Można pobierać na przemian



## hellshare ##

http://download.hellshare.com/young-adult-2011-cam-xvid-bbnrg-ipt-part1-rar/5484788/
http://download.hellshare.com/young-adult-2011-cam-xvid-bbnrg-ipt-part2-rar/5484771/


JEDEN LINK

http://download.hellshare.com/young-adult-2011-cam-xvid-bbnrg-avi/5484961/




NOTES

Mój upload || My upload
Bez hasła || No password
5% danych naprawczych || 5% recovery
Można pobierać na przemian || All links are interchangeable

Użytkownik VIP

ghwaySuper Uploader

#1 | Dodany: 22 Luty 2012 21:18

Kobieta na skraju dojrzałości / Young Adult (2011) CAM.XviD-DTRG / Napisy PL .txt

Dane techniczne:
Release: Young Adult (2011) CAM.XviD-DTRG
Rozmiar: 823 MB
Video: XVID | 1041 Kbps | 620 x 300 | 59 fps
Audio: MP3 | 256 Kbps | 2 kanały | 48.0 KHz
Czas trwania: 1h 28mn
Napisy: PL, .txt


Napisy PL:
Uwaga! Linki nie zakodowane tylko dla zarejestrowanych użytkowników!

Nie masz konta? Zarejestruj się za darmo!
----------------
Links are not encoded only for registered users only! Plese login or register!



Download - 500 MB Parts:

Hellshare
Uwaga! Linki nie zakodowane tylko dla zarejestrowanych użytkowników!

Nie masz konta? Zarejestruj się za darmo!
----------------
Links are not encoded only for registered users only! Plese login or register!



Download - 1 link:

Hellshare
Uwaga! Linki nie zakodowane tylko dla zarejestrowanych użytkowników!

Nie masz konta? Zarejestruj się za darmo!
----------------
Links are not encoded only for registered users only! Plese login or register!
Użytkownik VIP

uminekusiUżytkownik

#2 | Dodany: 3 Marzec 2012 14:33

Kobieta na skraju dojrzałości / Young Adult (2011)BDRip.XviD-AMIABLE



Film opowiada o trzydziestokilkuletniej rozwódce, autorce powieści dla nastolatków, która postanawia wrócić do rodzinnego miasteczka i odzyskać serce swojego byłego chłopaka. Nie będzie to jednak takie łatwe, ponieważ mężczyzna jest już żonaty i ma dwójkę dzieci.

Język: Angielski
Napisy: Polskie
Jakość: B.Dobra
Plik: Avi



http://ul.to/oj1otbjq
http://ul.to/ob3hjudk
http://ul.to/majbtla1
http://ul.to/2awxtrtk
Bardzo mo?liwe ?e ktoś loguje si? z tego IP co ja.
Posiadam internet osiedlowy przez co wiele os?b wraz ze mna
ma taki sam adres IP.

Informacje

Jeżeli chcesz skomentować artykuł musisz być zarejestrowany na stronie.