EXSite.pl - Portal ze wszystkim Mamy tutaj wszystko

NIE MASZ JESZCZE KONTA? ZAREJESTRUJ SIĘ ZA DARMO!   
Przypomnij hasło X

ścigana / Haywire (2012) 720p.CAM.READNFO.XViD-INSPiRAL

Dodał: ampatinis 9 Marzec 2012 23:25


ścigana / Haywire (2012) 720p.CAM.READNFO.XViD-INSPiRAL

ścigana / Haywire (2012) 720p.CAM.READNFO.XViD-INSPiRAL

ścigana / Haywire (2012) 720p.CAM.READNFO.XViD-INSPiRAL
PRODUKCJA: USA
GATUNEK: Thriller, Akcja, Szpiegowski
CZAS TRWANIA: 1h 33min
DATA PREMIERY: 20 stycznia 2012 (świat)
REŻYSERIA: Steven Soderbergh
SCENARIUSZ: Lem Dobbs
OBSADA: Gina Carano, Ewan McGregor, Michael Fassbender

OPIS: Mallory Kane (Gina Carano) jest piękną, tajną agentką CIA, przyjmującą jedynie zlecenia najwyższej wagi, ekstremalnie tajne i trudne, na które władze nie mogą zezwolić i o których przywódcy pa?stw nie powinni wiedzieć. Po udanej misji uwolnienia zakładników z Barcelony, Mallory dostaje kolejne zadanie w Dublinie. Gdy operacja nie przebiega po jej myśli, dowiaduje się, że została przechytrzona i musi użyć wszystkich swoich umiejętności, sztuczek i możliwości ucieczki, by nie zostać schwytaną w międzynarodowym polowaniu

SOURCES:

VIDEO - P76 720p THANKS
AUDIO - Elvis THANKS
SUBS - None Add

STATS:

Video
ID : 0
Format : MPEG-4 Visual
Format profile : Advanced Simple@L5
Format settings, BVOP : 2
Format settings, QPel : No
Format settings, GMC : No warppoints
Format settings, Matrix : Default (MPEG)
Muxing mode : Packed bitstream
Codec ID : XVID
Codec ID/Hint : XviD
Duration : 1h 26mn
Bit rate : 5 766 Kbps
Width : 1 280 pixels
Height : 608 pixels
Display aspect ratio : 2.2:1
Frame rate : 25.000 fps
Color space : YUV
Chroma subsampling : 4:2:0
Bit depth : 8 bits
Scan type : Progressive
Compression mode : Lossy
Bits/(Pixel*Frame) : 0.296
Stream size : 3.47 GiB (98%)
Writing library : XviD 64

Audio
ID : 1
Format : MPEG Audio
Format version : Version 1
Format profile : Layer 3
Mode : Joint stereo
Mode extension : MS Stereo
Codec ID : 55
Codec ID/Hint : MP3
Duration : 1h 26mn
Bit rate mode : Constant
Bit rate : 128 Kbps
Channel(s) : 2 channels
Sampling rate : 44.1 KHz
Compression mode : Lossy
Stream size : 78.9 MiB (2%)
Alignment : Split accross interleaves
Interleave, duration : 40 ms (1.00 video frame)
Interleave, preload duration : 500 ms


ścigana / Haywire (2012) 720p.CAM.READNFO.XViD-INSPiRAL

ścigana / Haywire (2012) 720p.CAM.READNFO.XViD-INSPiRAL ścigana / Haywire (2012) 720p.CAM.READNFO.XViD-INSPiRAL

ścigana / Haywire (2012) 720p.CAM.READNFO.XViD-INSPiRAL
Uwaga! Linki nie zakodowane tylko dla zarejestrowanych użytkowników!

Nie masz konta? Zarejestruj się za darmo!
----------------
Links are not encoded only for registered users only! Plese login or register!



Użytkownik VIP

warrior92VIP

#1 | Dodany: 26 Marzec 2012 19:06

ścigana / Haywire (2012)
PL.SUBBED.R5.XviD-MORS | WTOPiONE NAPiSY PL [702 MB]


DANE TECHNiCZNE

NAZWA RELEASU: Haywire.2012.PLSUBBED.R5.XviD-WiZARDS

ROZMiAR/SiZE:
AVI at 1.104 Kb/s
702 MB for 1h 28 min. 55s 120ms

ViDEO:
MPEG-4 Visual at 966 Kb/s
720 x 528 (1.364) at 25.000 fps

AUDiO:
MPEG Audio at 128 Kb/s
2 kanały, 44,1 KHz


OPiS UPLOADU

WiELKOśĆ UPLOADU: 702 MB
RODZAJ KOMPRESJi: .RAR
ZAWARTOśĆ UPLOADU: PLiK .AVi
WERSJA J?ZYKOWA: POLSKiE NAPiSY (WTOPiONE)
LiNKi ZAMiENNE: TAK
DANE NAPRAWCZE: 1%
BEZ HASŁA


ZDJ?CiA / SCREENS

http://www.pixhost.org/show/962/11741334_screenshot-00001.png

http://www.pixhost.org/show/962/11741335_screenshot-00002.png

http://www.pixhost.org/show/962/11741336_screenshot-00003.png

PRÓBKA FiLMU

http://www38.zippyshare.com/v/35350596/file.html


POBiERZ / DOWNLOAD

PARTY PO 250MB
BEZ HASŁA || 1% DANYCH NAPRAWCZYCH || MOŻNA POBiERAĆ NA PRZEMiAN

Uwaga! Linki nie zakodowane tylko dla zarejestrowanych użytkowników!

Nie masz konta? Zarejestruj się za darmo!
----------------
Links are not encoded only for registered users only! Plese login or register!



TYLKO 1 LiNK
BEZ HASŁA || 1% DANYCH NAPRAWCZYCH

Uwaga! Linki nie zakodowane tylko dla zarejestrowanych użytkowników!

Nie masz konta? Zarejestruj się za darmo!
----------------
Links are not encoded only for registered users only! Plese login or register!

Informacje

Jeżeli chcesz skomentować artykuł musisz być zarejestrowany na stronie.