EXSite.pl - Portal ze wszystkim Mamy tutaj wszystko

NIE MASZ JESZCZE KONTA? ZAREJESTRUJ SIĘ ZA DARMO!   
Przypomnij hasło X

Safe House (2012) TS.V3.XviD-26k

Dodał: tuxlive 10 Marzec 2012 17:59



Safe House 2012 TS V3 NEW VIDEO XviD-26k


Safe House (2012) TS.V3.XviD-26k




## Informacje ##

czas trwania: 1 godz. 55 min.
gatunek: Sensacyjny, Thriller
premiera: 24 lutego 2012 (Polska) 10 lutego 2012 (świat) (więcej...)
produkcja: RPA, USA
reżyseria: Daniel Espinosa
scenariusz: David Guggenheim


## Opis Filmu ##

Denzel Washington wciela się w jednego z najniebezpieczniejszych wrogów CIA, byłego oficera operacyjnego Tobina Frosta, który niespodziewanie pojawia się w jednym z miast Afryki Południowej i stawia na nogi cały wywiad. Przejęty przez agentów zostaje odesłany do kryjówki prowadzonej przez Matta Westona – w tej roli Ryan Reynolds. Kiedy miejsce zostaje zaatakowane przez brutalnych najemników, Matt zmuszony jest pomóc w ucieczce Frostowi i szybko zdaje sobie sprawę, że jego moralność i idealizm zostały wystawione na próbę. Teraz obaj muszą starać się przeżyć, aby dowiedzieć się, kto chciał się ich pozbyć.




## Screeny ##

Safe House (2012) TS.V3.XviD-26k Safe House (2012) TS.V3.XviD-26k

## Informacje Techniczne ##



Format                                   : AVI
Format/Info                              : Audio Video Interleave
File size                                : 1.37 GiB
Duration                                 : 1h 49mn
Overall bit rate                         : 1 799 Kbps
Writing library                          : VirtualDub build 32839/release

Video
ID                                       : 0
Format                                   : MPEG-4 Visual
Format profile                           : Advanced Simple@L5
Format settings, BVOP                    : 2
Format settings, QPel                    : No
Format settings, GMC                     : No warppoints
Format settings, Matrix                  : Default (H.263)
Muxing mode                              : Packed bitstream
Codec ID                                 : XVID
Codec ID/Hint                            : XviD
Duration                                 : 1h 49mn
Bit rate                                 : 1 661 Kbps
Width                                    : 720 pixels
Height                                   : 304 pixels
Display aspect ratio                     : 2.35:1
Frame rate                               : 25.000 fps
Color space                              : YUV
Chroma subsampling                       : 4:2:0
Bit depth                                : 8 bits
Scan type                                : Progressive
Compression mode                         : Lossy
Bits/(Pixel*Frame)                       : 0.304
Stream size                              : 1.27 GiB (92%)
Writing library                          : XviD 1.2.1 (UTC 2008-12-04)

Audio
ID                                       : 1
Format                                   : MPEG Audio
Format version                           : Version 1
Format profile                           : Layer 3
Codec ID                                 : 55
Codec ID/Hint                            : MP3
Duration                                 : 1h 49mn
Bit rate mode                            : Constant
Bit rate                                 : 128 Kbps
Channel(s)                               : 2 channels
Sampling rate                            : 44.1 KHz
Compression mode                         : Lossy
Stream size                              : 99.9 MiB (7%)
Alignment                                : Split accross interleaves
Interleave, duration                     : 40 ms (1.00 video frame)
Writing library                          : LAME3.98.4UUUUUU'w?





## Dane Techniczne Uploadu ##

Wielkość upload: 1370 Mb
Wilekość parta: 500 Mb
Ilość partów: 3
Kompresja: 1%
Dane naprawcze: Brak
hasło: brak



DOWNLOAD 500MB PART'S!
Bez hasła || 1% danych naprawczych || Można pobierać na przemian



## hellshare ##

http://download.hellshare.com/safe-house-2012-ts-v3-new-video-xvid-26k-dla-exsite-pl-part3-rar/5898253/
http://download.hellshare.com/safe-house-2012-ts-v3-new-video-xvid-26k-dla-exsite-pl-part1-rar/5898255/
http://download.hellshare.com/safe-house-2012-ts-v3-new-video-xvid-26k-dla-exsite-pl-part2-rar/5898447/


JEDEN LINK

http://download.hellshare.com/safe-house-2012-ts-v3-new-video-xvid-26k-avi/5898093/




NOTES

Mój upload || My upload
Bez hasła || No password
5% danych naprawczych || 5% recovery
Można pobierać na przemian || All links are interchangeable

Użytkownik VIP

ghwaySuper Uploader

#1 | Dodany: 10 Marzec 2012 18:00

Safe House (2012) TS.V3.NEW.VIDEO.XviD-26k

Dane techniczne:
Release Name: Safe.House.2012.TS.V3.NEW.VIDEO.XviD-26k
Size: 1.37 GiB
Video: XviD | 720 x 304 | 1 661 Kbps
Audio: English | MP3 | 128 Kbps
Runtime: 1h 49mn


Download - 400 MB Parts:

Hellshare
Uwaga! Linki nie zakodowane tylko dla zarejestrowanych użytkowników!

Nie masz konta? Zarejestruj się za darmo!
----------------
Links are not encoded only for registered users only! Plese login or register!


Turbobit
Uwaga! Linki nie zakodowane tylko dla zarejestrowanych użytkowników!

Nie masz konta? Zarejestruj się za darmo!
----------------
Links are not encoded only for registered users only! Plese login or register!



Download - 1 link:

Hellshare
Uwaga! Linki nie zakodowane tylko dla zarejestrowanych użytkowników!

Nie masz konta? Zarejestruj się za darmo!
----------------
Links are not encoded only for registered users only! Plese login or register!


Turbobit
Uwaga! Linki nie zakodowane tylko dla zarejestrowanych użytkowników!

Nie masz konta? Zarejestruj się za darmo!
----------------
Links are not encoded only for registered users only! Plese login or register!
Użytkownik VIP

NieBedeCieBilUżytkownik

#2 | Dodany: 20 Marzec 2012 23:14

Safe House (2012)


Denzel Washington wciela się w jednego z najniebezpieczniejszych wrogów CIA, byłego oficera operacyjnego Tobina Frosta, który niespodziewanie pojawia się w jednym z miast Afryki Południowej i stawia na nogi cały wywiad. Przejęty przez agentów zostaje odesłany do kryjówki prowadzonej przez Matta Westona w tej roli Ryan Reynolds. Kiedy miejsce zostaje zaatakowane przez brutalnych najemników, Matt zmuszony jest pomóc w ucieczce Frostowi i szybko zdaje sobie sprawę, że jego moralność i idealizm zostały wystawione na próbę. Teraz obaj muszą starać się przeżyć, aby dowiedzieć się, kto chciał się ich pozbyć.


Opis uploadu :


Rozmiar filmu - 996mb
Język filmu - ENG / brak napisów w sieci
Hasło - Brak
Dane naprawcze - Brak


Download :


http://download.hellshare.pl/shf-rar/6171595/


Hasło / Pass

Brak hasła / No pass
Dodaje tylko sprawdzony upload !

Informacje

Jeżeli chcesz skomentować artykuł musisz być zarejestrowany na stronie.