EXSite.pl - Portal ze wszystkim Mamy tutaj wszystko

NIE MASZ JESZCZE KONTA? ZAREJESTRUJ SIĘ ZA DARMO!   
Przypomnij hasło X

Gniew Tytanów / Wrath of The Titans (2012) 720P.TS.READNFO.XviD.AC3-26K

Dodał: ampatinis 3 Kwiecień 2012 21:50


Gniew Tytanów / Wrath of The Titans (2012) 720P.TS.READNFO.XviD.AC3-26K

Gniew Tytanów / Wrath of The Titans (2012) 720P.TS.READNFO.XviD.AC3-26K

Gniew Tytanów / Wrath of The Titans (2012) 720P.TS.READNFO.XviD.AC3-26K
Mija dziesięć lat od pamiętnej wyprawy, w której Perseusz (Sam Worthington) wraz z towarzyszami udał się do podziemnego świata, by stawić czoła samemu Hadesowi (Ralph Fiennes), oraz zgładzić potwornego Krakena. Syn Zeusa wiedzie spokojne życie rybaka, a także samotnie wychowuje swego dziesięcioletniego syna. Tymczasem na Olimpie rozpoczyna się walka o dominację pomiędzy Olimpijskimi Bogami na czele z Zeusem (Liam Neeson), a Tytanami i ich straszliwym przywódcą, ojcem Zeusa, Hadesa i Posejdona (Danny Houston) - Kronosem - który zdołał uwolnić się z podziemnych lochów Tartaru. Gdy okazuje się, że Ares (?dgar Ram?rez) oraz Hades zdradzają Zeusa i zostają sprzymierze?cami Kronosa, którego siły rosną wraz z wysysaniem mocy Zeusa, na ziemi rozpętuje się piekło. Perseusz jeszcze raz zmuszony jest udać się w niebezpieczną podróż, w której wraz z nowymi towarzyszami celem będzie uratowanie ojca i obalenie Tytanów.


Video
ID : 0
Format : MPEG-4 Visual
Format profile : Advanced Simple@L5
Format settings, BVOP : 2
Format settings, QPel : No
Format settings, GMC : No warppoints
Format settings, Matrix : Default (H.263)
Codec ID : XVID
Codec ID/Hint : XviD
Duration : 1h 30mn
Bit rate : 2 298 Kbps
Width : 1 280 pixels
Height : 518 pixels
Display aspect ratio : 2.471
Frame rate : 25.000 fps
Color space : YUV
Chroma subsampling : 4:2:0
Bit depth : 8 bits
Scan type : Progressive
Compression mode : Lossy
Bits/(Pixel*Frame) : 0.139
Stream size : 1.45 GiB (88%)
Writing library : XviD 64

Audio
ID : 1
Format : AC-3
Format/Info : Audio Coding 3
Mode extension : CM (complete main)
Codec ID : 2000
Duration : 1h 30mn
Bit rate mode : Constant
Bit rate : 320 Kbps
Channel(s) : 2 channels
Channel positions : Front: L R
Sampling rate : 44.1 KHz
Bit depth : 16 bits
Compression mode : Lossy
Stream size : 207 MiB (12%)
Alignment : Aligned on interleaves
Interleave, duration : 70 ms (1.74 video frames)
Interleave, preload duration : 208 ms
Title : audio


Gniew Tytanów / Wrath of The Titans (2012) 720P.TS.READNFO.XviD.AC3-26K

Gniew Tytanów / Wrath of The Titans (2012) 720P.TS.READNFO.XviD.AC3-26K Gniew Tytanów / Wrath of The Titans (2012) 720P.TS.READNFO.XviD.AC3-26K

Gniew Tytanów / Wrath of The Titans (2012) 720P.TS.READNFO.XviD.AC3-26K
Uwaga! Linki nie zakodowane tylko dla zarejestrowanych użytkowników!

Nie masz konta? Zarejestruj się za darmo!
----------------
Links are not encoded only for registered users only! Plese login or register!



Użytkownik VIP

GHunter Użytkownik

#1 | Dodany: 3 Kwiecień 2012 21:50

:-)
Użytkownik VIP

morswin25VIP Uploader

#2 | Dodany: 3 Kwiecień 2012 21:52

Gniew tytanów / Wrath of the Titans (2012) PL.SUBBED.TS.XViD-MORS
** WGRANE NAPISY PL **




DANE TECHNICZNE:

Wrath of the Titans (2012) PL.SUBBED.TS.XViD-MORS

Format : AVI at 1 081 Kbps
Length : 699 MiB for 1h 30mn 25s 680ms
Video #0 : MPEG-4 Visual at 948 Kbps
Aspect : 720 x 320 (2.250) at 25.000 fps
Audio #0 : MPEG Audio at 121 Kbps
Infos : 2 channels, 44.1 KHz
Napisy : PL wtopione (THX!:GH)



TYLKO 1 LINK (BEZ KOMPRESJI)

Uwaga! Linki nie zakodowane tylko dla zarejestrowanych użytkowników!

Nie masz konta? Zarejestruj się za darmo!
----------------
Links are not encoded only for registered users only! Plese login or register!



PARTY PO 500 MB (1% DANE NAPRAWCZE / BEZ HASŁA)

Uwaga! Linki nie zakodowane tylko dla zarejestrowanych użytkowników!

Nie masz konta? Zarejestruj się za darmo!
----------------
Links are not encoded only for registered users only! Plese login or register!


PLIKI MOŻNA POBIERAĆ NA PRZEMIAN

Uwaga! Linki nie zakodowane tylko dla zarejestrowanych użytkowników!

Nie masz konta? Zarejestruj się za darmo!
----------------
Links are not encoded only for registered users only! Plese login or register!


PLIKI MOŻNA POBIERAĆ NA PRZEMIAN

Uwaga! Linki nie zakodowane tylko dla zarejestrowanych użytkowników!

Nie masz konta? Zarejestruj się za darmo!
----------------
Links are not encoded only for registered users only! Plese login or register!


PLIKI MOŻNA POBIERAĆ NA PRZEMIAN

Uwaga! Linki nie zakodowane tylko dla zarejestrowanych użytkowników!

Nie masz konta? Zarejestruj się za darmo!
----------------
Links are not encoded only for registered users only! Plese login or register!




Użytkownik VIP

gacek017Użytkownik

#3 | Dodany: 3 Kwiecień 2012 21:53

Gniew Tytanów / Wrath of The Titans (2012) 720P.TS.READNFO.XviD.AC3-26K

Video
ID : 0
Format : MPEG-4 Visual
Format profile : Advanced Simple@L5
Format settings, BVOP : 2
Format settings, QPel : No
Format settings, GMC : No warppoints
Format settings, Matrix : Default (H.263)
Codec ID : XVID
Codec ID/Hint : XviD
Duration : 1h 30mn
Bit rate : 2 298 Kbps
Width : 1 280 pixels
Height : 518 pixels
Display aspect ratio : 2.471
Frame rate : 25.000 fps
Color space : YUV
Chroma subsampling : 4:2:0
Bit depth : 8 bits
Scan type : Progressive
Compression mode : Lossy
Bits/(Pixel*Frame) : 0.139
Stream size : 1.45 GiB (88%)
Writing library : XviD 64

Audio
ID : 1
Format : AC-3
Format/Info : Audio Coding 3
Mode extension : CM (complete main)
Codec ID : 2000
Duration : 1h 30mn
Bit rate mode : Constant
Bit rate : 320 Kbps
Channel(s) : 2 channels
Channel positions : Front: L R
Sampling rate : 44.1 KHz
Bit depth : 16 bits
Compression mode : Lossy
Stream size : 207 MiB (12%)
Alignment : Aligned on interleaves
Interleave, duration : 70 ms (1.74 video frames)
Interleave, preload duration : 208 ms
Title : audio


Uwaga! Linki nie zakodowane tylko dla zarejestrowanych użytkowników!

Nie masz konta? Zarejestruj się za darmo!
----------------
Links are not encoded only for registered users only! Plese login or register!
Użytkownik VIP

ghwaySuper Uploader

#4 | Dodany: 3 Kwiecień 2012 21:54

Gniew Tytanów / Wrath of The Titans (2012) PLSUBBED.TS.XviD-BiDA / Napisy PL

Dane techniczne:
Format : AVI at 1 080 Kbps
Length : 698 MiB for 1h 30mn 25s 720ms

Video #0 : MPEG-4 Visual at 942 Kbps
Aspect : 624 x 272 (2.294) at 25.000 fps

Audio #0 : MPEG Audio at 128 Kbps
Infos : 2 channels, 44.1 KHz


Download - 400 MB Parts:

Hellshare
Uwaga! Linki nie zakodowane tylko dla zarejestrowanych użytkowników!

Nie masz konta? Zarejestruj się za darmo!
----------------
Links are not encoded only for registered users only! Plese login or register!


Turbobit
Uwaga! Linki nie zakodowane tylko dla zarejestrowanych użytkowników!

Nie masz konta? Zarejestruj się za darmo!
----------------
Links are not encoded only for registered users only! Plese login or register!


Rapidgator
Uwaga! Linki nie zakodowane tylko dla zarejestrowanych użytkowników!

Nie masz konta? Zarejestruj się za darmo!
----------------
Links are not encoded only for registered users only! Plese login or register!



Download - 1 link:

Hellshare
Uwaga! Linki nie zakodowane tylko dla zarejestrowanych użytkowników!

Nie masz konta? Zarejestruj się za darmo!
----------------
Links are not encoded only for registered users only! Plese login or register!


Turbobit
Uwaga! Linki nie zakodowane tylko dla zarejestrowanych użytkowników!

Nie masz konta? Zarejestruj się za darmo!
----------------
Links are not encoded only for registered users only! Plese login or register!


Rapidgator
Uwaga! Linki nie zakodowane tylko dla zarejestrowanych użytkowników!

Nie masz konta? Zarejestruj się za darmo!
----------------
Links are not encoded only for registered users only! Plese login or register!
Użytkownik VIP

warrior92VIP

#5 | Dodany: 6 Kwiecień 2012 12:34

Gniew Tytanów / Wrath of The Titans (2012)
PLSUBBED.TS.XviD-BiDA | WTOPiONE NAPiSY PL [698 MB]


DANE TECHNiCZNE

NAZWA RELEASU: Wrath.of.The.Titans.2012.PLSUBBED.TS.XviD-BiDA

ROZMiAR/SiZE:
AVI at 1.080 Kb/s
698 MB for 1h 30 min. 25s 720ms

ViDEO:
MPEG-4 Visual at 942 Kb/s
624 x 272 (2.294) at 25.000 fps

AUDiO:
MPEG Audio at 128 Kb/s
2 kanały, 44,1 KHz


OPiS UPLOADU

WiELKOśĆ UPLOADU: 698 MB
RODZAJ KOMPRESJi: .RAR
ZAWARTOśĆ UPLOADU: PLiK .AVi
WERSJA J?ZYKOWA: POLSKiE NAPiSY (WTOPiONE)
LiNKi ZAMiENNE: TAK
DANE NAPRAWCZE: 1%
BEZ HASŁA


ZDJ?CiA / SCREENS

http://www.pixhost.org/show/3559/11832850_screenshot-00001.png

http://www.pixhost.org/show/3559/11832851_screenshot-00002.png

http://www.pixhost.org/show/3559/11832853_screenshot-00003.png

PRÓBKA FiLMU

http://www39.zippyshare.com/v/86693794/file.html


POBiERZ / DOWNLOAD

PARTY - 400 MB
BEZ HASŁA || 1% DANYCH NAPRAWCZYCH || MOŻNA POBiERAĆ NA PRZEMiAN

Uwaga! Linki nie zakodowane tylko dla zarejestrowanych użytkowników!

Nie masz konta? Zarejestruj się za darmo!
----------------
Links are not encoded only for registered users only! Plese login or register!



TYLKO 1 LiNK
BEZ HASŁA || 1% DANYCH NAPRAWCZYCH

Uwaga! Linki nie zakodowane tylko dla zarejestrowanych użytkowników!

Nie masz konta? Zarejestruj się za darmo!
----------------
Links are not encoded only for registered users only! Plese login or register!

Informacje

Jeżeli chcesz skomentować artykuł musisz być zarejestrowany na stronie.