EXSite.pl - Portal ze wszystkim Mamy tutaj wszystko

NIE MASZ JESZCZE KONTA? ZAREJESTRUJ SIĘ ZA DARMO!   
Przypomnij hasło X

Człowiek na krawędzi / Man on a Ledge (2012) Cam.V2.XviD-TODE

Dodał: szajtek 6 Kwiecień 2012 18:26


Człowiek na krawędzi / Man on a Ledge (2012) Cam.V2.XviD-TODE


Jest wczesny poranek w samym sercu Nowego Jorku. W położonym na 21 piętrze oknie luksusowego hotelu pojawia się mężczyzna. Wszystko wskazuje na to, że zamierza popełnić samobójstwo. Gdy na miejscu zjawia się policja, mężczyzna oświadcza, że będzie rozmawiał tylko z wybraną negocjatorką. Tymczasem w położonym po sąsiedzku budynku Nowojorskiej Giełdy Diamentów niezauważona przez nikogo dwójka włamywaczy zmierza po bezcenny diament. Kim jest mężczyzna szykujący się do skoku? Czy łączy go coś z włamywaczami? Dlaczego kilku wysoko postawionych policjantów wpada w panikę po odkryciu tożsamości samobójcy? Wkrótce okaże się, że wszyscy łącznie ze zgromadzonymi na ulicy gapiami są częścią misternego planu. A kto pociąga za sznurki? Człowiek na krawędzi

Format                                   : AVI
Format/Info                              : Audio Video Interleave
File size                                : 723 MiB
Duration                                 : 1h 35mn
Overall bit rate                         : 1 062 Kbps
Writing application                      : Lavf51.12.1
Writing library                          : VirtualDub build 32842/release

Video
ID                                       : 0
Format                                   : MPEG-4 Visual
Format profile                           : Advanced Simple@L5
Format settings, BVOP                    : 2
Format settings, QPel                    : No
Format settings, GMC                     : No warppoints
Format settings, Matrix                  : Default (H.263)
Muxing mode                              : Packed bitstream
Codec ID                                 : XVID
Codec ID/Hint                            : XviD
Duration                                 : 1h 35mn
Bit rate                                 : 924 Kbps
Width                                    : 620 pixels
Height                                   : 262 pixels
Display aspect ratio                     : 2.35:1
Frame rate                               : 25.000 fps
Color space                              : YUV
Chroma subsampling                       : 4:2:0
Bit depth                                : 8 bits
Scan type                                : Progressive
Compression mode                         : Lossy
Bits/(Pixel*Frame)                       : 0.228
Stream size                              : 629 MiB (87%)
Writing library                          : XviD 62

Audio
ID                                       : 1
Format                                   : MPEG Audio
Format version                           : Version 1
Format profile                           : Layer 3
Mode                                     : Joint stereo
Mode extension                           : MS Stereo
Codec ID                                 : 55
Codec ID/Hint                            : MP3
Duration                                 : 1h 35mn
Bit rate mode                            : Constant
Bit rate                                 : 128 Kbps
Channel(s)                               : 2 channels
Sampling rate                            : 44.1 KHz
Compression mode                         : Lossy
Stream size                              : 87.1 MiB (12%)
Alignment                                : Split accross interleaves
Interleave, duration                     : 40 ms (1.00 video frame)
Interleave, preload duration             : 500 ms
Writing library                          : LAME3.99r
Encoding settings                        : -m j -V 4 -q 2 -lowpass 17 -b 128


SCREENS:


Uwaga! Linki nie zakodowane tylko dla zarejestrowanych użytkowników!

Nie masz konta? Zarejestruj się za darmo!
----------------
Links are not encoded only for registered users only! Plese login or register!


OR // LINKS ARE INTERCHANGEABLE

Uwaga! Linki nie zakodowane tylko dla zarejestrowanych użytkowników!

Nie masz konta? Zarejestruj się za darmo!
----------------
Links are not encoded only for registered users only! Plese login or register!

Informacje

Jeżeli chcesz skomentować artykuł musisz być zarejestrowany na stronie.