EXSite.pl - Portal ze wszystkim Mamy tutaj wszystko

NIE MASZ JESZCZE KONTA? ZAREJESTRUJ SIĘ ZA DARMO!   
Przypomnij hasło X

Battleship: Bitwa o Ziemię / Battleship (2012) REPACK.TS.XViD.AC3-ADTRG

Dodał: BrettHopper 25 Maj 2012 18:14


Battleship: Bitwa o Ziemię / Battleship (2012) REPACK.TS.XViD.AC3-ADTRG

Battleship: Bitwa o Ziemię / Battleship (2012)  REPACK.TS.XViD.AC3-ADTRG


Battleship: Bitwa o Ziemię / Battleship (2012)  REPACK.TS.XViD.AC3-ADTRG
czas trwania: 2 godz. 11 min.
gatunek: Sci-Fi
premiera: 20 kwietnia 2012 (Polska) 11 kwietnia 2012 (świat)
produkcja: USA
reżyseria: Peter Berg
scenariusz: Jon Hoeber, Erich Hoeber

To ekranizacja jednej z najbardziej popularnej gry w statki. Floty statków marynarki wojennej będą musiały stawić czoła armadzie niezidentyfikowanych obiektów. Celem statków jest odkrycie i udaremnienie destrukcyjnych planów wrogo nastawionych przybyszów z kosmosu.



SCREENY:
Battleship: Bitwa o Ziemię / Battleship (2012)  REPACK.TS.XViD.AC3-ADTRG



DANE TECHNICZNE:
Source - 720p Cam SMY Thanks
Source - missing scenes - Twix Thanks
Source - LiNe Audio - Dragon Exclusive Thanks, awesome work bro

Complete name : BattleShip.2012.REPACK.TS.XViD.AC3-ADTRG.avi
Format : AVI
Format/Info : Audio Video Interleave
File size : 1.52 GiB
Duration : 2h 0mn
Overall bit rate : 1 805 Kbps
Writing library : VirtualDub build 34703/release

Video
ID : 0
Format : MPEG-4 Visual
Codec ID : XVID
Bit rate : 1 604 Kbps
Width : 720 pixels
Height : 320 pixels
Display aspect ratio : 2.25:1
Frame rate : 30.000 fps
Stream size : 1.35 GiB (89%)

Audio
ID : 1
Format : AC-3
Bit rate : 192 Kbps
Channel(s) : 2 channels
Channel positions : Front: L R
Sampling rate : 48.0 KHz
Stream size : 163 MiB (11%)





Encoder - LiMeY
K, i dropped the ball on first one, played fine on laptop, not so fine on WDTV.
removed long black screen at beginning , a few dupe frames and synced for your viewing pleasure.
might still be a few 1 second glitches on joins but at least 99% synced so enjoy.


Good things come in small packages, So feel the wrath of my compression




DOWNLOAD:
Uwaga! Linki nie zakodowane tylko dla zarejestrowanych użytkowników!

Nie masz konta? Zarejestruj się za darmo!
----------------
Links are not encoded only for registered users only! Plese login or register!

Uwaga! Linki nie zakodowane tylko dla zarejestrowanych użytkowników!

Nie masz konta? Zarejestruj się za darmo!
----------------
Links are not encoded only for registered users only! Plese login or register!

Uwaga! Linki nie zakodowane tylko dla zarejestrowanych użytkowników!

Nie masz konta? Zarejestruj się za darmo!
----------------
Links are not encoded only for registered users only! Plese login or register!

Uwaga! Linki nie zakodowane tylko dla zarejestrowanych użytkowników!

Nie masz konta? Zarejestruj się za darmo!
----------------
Links are not encoded only for registered users only! Plese login or register!

Użytkownik VIP

RYCHARDS2509Użytkownik

#1 | Dodany: 25 Maj 2012 18:25

film z napisami ? THX

Informacje

Jeżeli chcesz skomentować artykuł musisz być zarejestrowany na stronie.