EXSite.pl - Portal ze wszystkim Mamy tutaj wszystko

NIE MASZ JESZCZE KONTA? ZAREJESTRUJ SIĘ ZA DARMO!   
Przypomnij hasło X

Dyktator / The Dictator (2012) TS.NEW.SOURCE.READNFO.XViD-INSPiRAL

Dodał: BrettHopper 30 Maj 2012 22:37


Dyktator / The Dictator (2012) TS.NEW.SOURCE.READNFO.XViD-INSPiRAL

Dyktator / The Dictator (2012) TS.NEW.SOURCE.READNFO.XViD-INSPiRAL


Dyktator / The Dictator (2012) TS.NEW.SOURCE.READNFO.XViD-INSPiRAL
czas trwania: 1 godz. 23 min.
gatunek: Komedia
premiera: 18 maja 2012 (Polska) 9 maja 2012 (świat)
produkcja: USA
reżyseria: Larry Charles
scenariusz: Sacha Baron Cohen, Alec Berg

Film opowiada heroiczną historię dyktatora, który ryzykuje życiem, aby demokracja nigdy nie zagościła w kraju, który z taką miłością gnębi. Scenariusz został zainspirowany bestsellerem „Zabibah and The King” autorstwa Saddama Husseina. Jak mówi Cohen, jest to „niezwykła historia dyktatora, który heroicznie ryzykował własne życie po to, by demokracja nigdy nie zawitała do kraju, który z taką miłością terroryzował”.


SCREENY:
Dyktator / The Dictator (2012) TS.NEW.SOURCE.READNFO.XViD-INSPiRAL
Dyktator / The Dictator (2012) TS.NEW.SOURCE.READNFO.XViD-INSPiRAL
Dyktator / The Dictator (2012) TS.NEW.SOURCE.READNFO.XViD-INSPiRAL



DANE TECHNICZNE:
SOURCES:

VIDEO - NEW SOURCE and UNKNOWN THANKS
AUDIO - ADTRG THANKS
SUBS - ENG WHEN NEEDED

STATS:

ideo
ID : 0
Format : MPEG-4 Visual
Format profile : Advanced Simple@L5
Format settings, BVOP : 2
Format settings, QPel : No
Format settings, GMC : No warppoints
Format settings, Matrix : Default (MPEG)
Muxing mode : Packed bitstream
Codec ID : XVID
Codec ID/Hint : XviD
Duration : 1h 12mn
Bit rate : 2 511 Kbps
Width : 720 pixels
Height : 288 pixels
Display aspect ratio : 2.500
Frame rate : 29.970 fps
Color space : YUV
Chroma subsampling : 4:2:0
Bit depth : 8 bits
Scan type : Progressive
Compression mode : Lossy
Bits/(Pixel*Frame) : 0.404
Stream size : 1.28 GiB (95%)
Writing library : XviD 64

Audio
ID : 1
Format : MPEG Audio
Format version : Version 1
Format profile : Layer 3
Mode : Joint stereo
Mode extension : MS Stereo
Codec ID : 55
Codec ID/Hint : MP3
Duration : 1h 12mn
Bit rate mode : Constant
Bit rate : 128 Kbps
Channel(s) : 2 channels
Sampling rate : 48.0 KHz
Compression mode : Lossy
Stream size : 66.7 MiB (5%)
Alignment : Split accross interleaves
Interleave, duration : 33 ms (1.00 video frame)
Interleave, preload duration : 500 ms



NOTES:

Ok lets clear up the reason for yet another readnfo release....couple of reasons really.
1.The main body and most of the film is from a new source,however there was missing scenes which
have been filled in with unknowns cam.
2.Runtime is shorter than the other yet its ALL there and isn't missing anything....when syncinng the
video seemed too fall behind by 27 secs every 10mins roughly,yet i match the start and end point of 10min
clips from adtrg release and this one.
So we think its got too be the way one of the releases is captured ....but tested this on TV and plays fine.

Video ....MUCH better Q than whats out and is less cropped on sides and top,but a touch more cropped on the bottom.
Like stated missing some scenes aswell but they were filled in.
Audio ....was adtrgs line as it was better,still needed some lovin but not much


Filtered the video and appened missing scenes too make it complete and then the main time was spent syncing.Was a pita to
do due too the runtimes,so ended up with 60 cuts and not the way you should do it,but when using already cut audio files it
makes it alot harder too sync.Different when you have untouched audio files,but hey ho ;-)

Oh forgot all about the subs ...doh,anyway made a subpack and HC when needed




DOWNLOAD:
Uwaga! Linki nie zakodowane tylko dla zarejestrowanych użytkowników!

Nie masz konta? Zarejestruj się za darmo!
----------------
Links are not encoded only for registered users only! Plese login or register!

Uwaga! Linki nie zakodowane tylko dla zarejestrowanych użytkowników!

Nie masz konta? Zarejestruj się za darmo!
----------------
Links are not encoded only for registered users only! Plese login or register!

Uwaga! Linki nie zakodowane tylko dla zarejestrowanych użytkowników!

Nie masz konta? Zarejestruj się za darmo!
----------------
Links are not encoded only for registered users only! Plese login or register!

Uwaga! Linki nie zakodowane tylko dla zarejestrowanych użytkowników!

Nie masz konta? Zarejestruj się za darmo!
----------------
Links are not encoded only for registered users only! Plese login or register!

Użytkownik VIP

amh91VIP

#1 | Dodany: 30 Maj 2012 22:37

;pp
.

Audycje - DJ HIT - 18.05.2012 - Hot Hits

Gorąco Polecam ! - Zippyshare.com


.
Użytkownik VIP

hulkkUżytkownik

#2 | Dodany: 30 Maj 2012 22:43

ok
Użytkownik VIP

lexerUżytkownik

#3 | Dodany: 30 Maj 2012 22:45

qqq222,
Naprawdę myślisz, że jesteś fajny używając słowa "subby" zamiast napisy?
Użytkownik VIP

GervvazyUżytkownik

#4 | Dodany: 30 Maj 2012 22:52

każdy ponad każdym. Wystarczy być sobą
Użytkownik VIP

IwOQUżytkownik

#5 | Dodany: 30 Maj 2012 23:30

thx
~ PLIKI BEZ HAS?A i LiNKi WYMiENNE~
~LINK PAD?? PISZ DO 12h NOWY!~
Użytkownik VIP

robert2828Użytkownik

#6 | Dodany: 1 Czerwiec 2012 08:51

Dyktator / The Dictator (2012) CAM.READNFO.XviD-Sizu


Dane Techniczne:
Format: AVI 892 Kb/s
Rozmiar: 472 MB 1h 13min. 53s 920ms

Video: MPEG-4 Visual 755 Kb/s
Rozdzielczość: 720 x 256 (2.813) 25.000 fps

Audio: MPEG Audio 128 Kb/s
Kanały: 2 kanały, 22.05 KHz


HELLUPLOAD

Uwaga! Linki nie zakodowane tylko dla zarejestrowanych użytkowników!

Nie masz konta? Zarejestruj się za darmo!
----------------
Links are not encoded only for registered users only! Plese login or register!

Użytkownik VIP

NordShouUżytkownik

#7 | Dodany: 3 Czerwiec 2012 07:03

Dictator / Dyktator 2012 XviD-Unknown ENG

czas trwania: 1 godz. 16 min.
gatunek: Komedia
premiera: 18 maja 2012 (Polska) 9 maja 2012 (świat)
produkcja: USA
reżyseria: Larry Charles
scenariusz: Sacha Baron Cohen, Alec Berg

Release Name: Dictator.2012.Unknown
Size: 987 MB
Video: Xvid 680x304 29.97fps 1671kbps [Video 0]
Audio: MPEG Audio Layer 3 24000Hz stereo 128kbps [Audio 1]
Runtime: 2:12:01

Film / Movie
http://download.hellshare.pl/dictator-2012/dictator-2012-unknow-nord-avi/7582324/



Password
Brak Hasła / No Password
Użytkownik VIP

wojtas200444Użytkownik

#8 | Dodany: 10 Czerwiec 2012 10:47

A napisy?

Informacje

Jeżeli chcesz skomentować artykuł musisz być zarejestrowany na stronie.