EXSite.pl - Portal ze wszystkim Mamy tutaj wszystko

NIE MASZ JESZCZE KONTA? ZAREJESTRUJ SIĘ ZA DARMO!   
Przypomnij hasło X

Czarnobyl: Reaktor strachu / Chernobyl Diaries (2012) CAM.XViD-UNiQUE

Dodał: YOMATA 2 Czerwiec 2012 23:59


Czarnobyl: Reaktor strachu / Chernobyl Diaries (2012) CAM.XViD-UNiQUE

Czarnobyl: Reaktor strachu / Chernobyl Diaries (2012) CAM.XViD-UNiQUE

Czarnobyl: Reaktor strachu / Chernobyl Diaries (2012) CAM.XViD-UNiQUE

czas trwania: 1 godz. 30 min.
gatunek: Horror
premiera: 22 czerwca 2012 (Polska) 25 maja 2012 (świat)
produkcja: USA
reżyseria: Bradley Parker
scenariusz: Oren Peli, Carey Van Dyke


Horror twórcy przełomowego "Paranormal Activity". Sześcioro młodych ludzi szukających ekstremalnych wraże? wynajmuje przewodnika, który, mimo surowych zakazów, zabiera ich do owianego tajemnicą miasta-widmo. Tu mieszkali niegdyś pracownicy reaktora w Czarnobylu. Po tragicznym wybuchu, ponad 25 lat temu, w ciągu 48 godzin przeprowadzono ewakuację całego miasta. Pozostali w nim nieliczni ludzie, których już nigdy więcej nie widziano... Wkrótce bohaterowie filmu odkrywają, że choć nikt nie przeżył katastrofy, bynajmniej nie są tutaj sami. Wszystko wskazuje na to, że przerażający rozdział w historii miasta nie został jeszcze wcale zamknięty.

Format : AVI at 2.501 Kb/s
Length : 1,41 GB for 1h 20 min. 27s 120ms

Video #0 : MPEG-4 Visual at 2.363 Kb/s
Aspect : 720 x 288 (2.500) at 25.000 fps

Audio #0 : MPEG Audio at 128 Kb/s
Infos : 1 kanał, 44,1 KHz



Czarnobyl: Reaktor strachu / Chernobyl Diaries (2012) CAM.XViD-UNiQUE
Czarnobyl: Reaktor strachu / Chernobyl Diaries (2012) CAM.XViD-UNiQUE Czarnobyl: Reaktor strachu / Chernobyl Diaries (2012) CAM.XViD-UNiQUE Czarnobyl: Reaktor strachu / Chernobyl Diaries (2012) CAM.XViD-UNiQUE

Czarnobyl: Reaktor strachu / Chernobyl Diaries (2012) CAM.XViD-UNiQUE
Uwaga! Linki nie zakodowane tylko dla zarejestrowanych użytkowników!

Nie masz konta? Zarejestruj się za darmo!
----------------
Links are not encoded only for registered users only! Plese login or register!



Użytkownik VIP

ghwaySuper Uploader

#1 | Dodany: 3 Czerwiec 2012 00:05



Czarnobyl. Reaktor strachu / Chernobyl Diaries (2012)
CAM.XviD-26k


DANE TECHNiCZNE:

Format            : AVI at 2 438 Kbps
Length            : 1.37 GiB for 1h 20mn 27s 120ms

Video #0          : MPEG-4 Visual at 2 300 Kbps
Aspect            : 720 x 272 (2.647) at 25.000 fps

Audio #0          : MPEG Audio at 128 Kbps
Infos             : 1 channel, 44.1 KHz

Język: angielski
Napisy: Brak





DOWNLOAD - 400 MB PARTS:


HELLSHARE
Uwaga! Linki nie zakodowane tylko dla zarejestrowanych użytkowników!

Nie masz konta? Zarejestruj się za darmo!
----------------
Links are not encoded only for registered users only! Plese login or register!


TURBOBiT
Uwaga! Linki nie zakodowane tylko dla zarejestrowanych użytkowników!

Nie masz konta? Zarejestruj się za darmo!
----------------
Links are not encoded only for registered users only! Plese login or register!


FREAKSHARE
Uwaga! Linki nie zakodowane tylko dla zarejestrowanych użytkowników!

Nie masz konta? Zarejestruj się za darmo!
----------------
Links are not encoded only for registered users only! Plese login or register!


FASTSHARE
Uwaga! Linki nie zakodowane tylko dla zarejestrowanych użytkowników!

Nie masz konta? Zarejestruj się za darmo!
----------------
Links are not encoded only for registered users only! Plese login or register!





DOWNLOAD - 1 LiNK:


HELLSHARE
Uwaga! Linki nie zakodowane tylko dla zarejestrowanych użytkowników!

Nie masz konta? Zarejestruj się za darmo!
----------------
Links are not encoded only for registered users only! Plese login or register!


TURBOBiT
Uwaga! Linki nie zakodowane tylko dla zarejestrowanych użytkowników!

Nie masz konta? Zarejestruj się za darmo!
----------------
Links are not encoded only for registered users only! Plese login or register!




Bez hasła!
Pliki można pobierać naprzemiennie


Użytkownik VIP

tomeczek2219Użytkownik

#2 | Dodany: 3 Czerwiec 2012 00:44

Czarnobyl. Reaktor strachu / Chernobyl Diaries (2012) CAM.XviD-26k


DANE TECHNiCZNE:


Format            : AVI at 2 438 Kbps
Length            : 1.37 GiB for 1h 20mn 27s 120ms

Video #0          : MPEG-4 Visual at 2 300 Kbps
Aspect            : 720 x 272 (2.647) at 25.000 fps

Audio #0          : MPEG Audio at 128 Kbps
Infos             : 1 channel, 44.1 KHz



Język: angielski
Napisy: Brak



Turbobit
Uwaga! Linki nie zakodowane tylko dla zarejestrowanych użytkowników!

Nie masz konta? Zarejestruj się za darmo!
----------------
Links are not encoded only for registered users only! Plese login or register!
smile
Użytkownik VIP

coulUżytkownik

#3 | Dodany: 3 Czerwiec 2012 09:59

Linki padly :(
Użytkownik VIP

Wojtas96Użytkownik

#4 | Dodany: 3 Czerwiec 2012 11:45

Może ktoś to wrzucić jeszcze raz, recourse bo linki padły linki
Użytkownik VIP

mirekkejUżytkownik

#5 | Dodany: 3 Czerwiec 2012 12:47

linki dajcie aktywne linki linki



help
Użytkownik VIP

damek21Użytkownik

#6 | Dodany: 5 Czerwiec 2012 12:06

Chernobyl.Diaries.2012.CAM.XviD.AC3-TODE



========================================
Format : AVI
Format/Info : Audio Video Interleave
File size : 678 MiB
Duration : 1h 20mn
Overall bit rate : 1 178 Kbps
Writing application : Lavf54.3.100

Video
ID : 0
Format : MPEG-4 Visual
Format profile : Simple@L3
Format settings, BVOP : No
Format settings, QPel : No
Format settings, GMC : No warppoints
Format settings, Matrix : Default (H.263)
Codec ID : XVID
Codec ID/Hint : XviD
Duration : 1h 20mn
Bit rate : 1 040 Kbps
Width : 640 pixels
Height : 272 pixels
Display aspect ratio : 2.500
Frame rate : 25.000 fps
Color space : YUV
Chroma subsampling : 4:2:0
Bit depth : 8 bits
Scan type : Progressive
Compression mode : Lossy
Bits/(Pixel*Frame) : 0.239
Stream size : 598 MiB (88%)
Writing library : XviD 64

Audio
ID : 1
Format : AC-3
Format/Info : Audio Coding 3
Mode extension : CM (complete main)
Format settings, Endianness : Big
Codec ID : 2000
Duration : 1h 20mn
Bit rate mode : Constant
Bit rate : 128 Kbps
Channel(s) : 2 channels
Channel positions : Front: L R
Sampling rate : 48.0 KHz
Bit depth : 16 bits
Compression mode : Lossy
Stream size : 73.6 MiB (11%)
Alignment : Aligned on interleaves
Interleave, duration : 32 ms (0.80 video frame)
========================================




http://extabit.com/file/2dvaf0sonmd2v/csmods.czarnobyl.rar



Moj folder z xxx: http://b15d9f88.linkbabes.com
Użytkownik VIP

01bialy01Użytkownik

#7 | Dodany: 5 Listopad 2012 09:30

Czarnobyl. Reaktor strachu / Chernobyl Diaries (2012) PLSUBBED.DVDRip.XviD-BiDA / Napisy PL

Dane techniczne:
Format            : AVI at 1.172 Kb/s
Length            : 743 MB for 1h 28 min. 33s 308ms

Video #0          : MPEG-4 Visual at 1.035 Kb/s
Aspect            : 624 x 336 (1.857) at 23.976 fps

Audio #0          : MPEG Audio at 128 Kb/s
Infos             : 2 kanały, 48,0 KHz


Opis uploadu:
Wielkość Całości : 743 MB
Rodzaj kompresji : brak
Zawartość Uploadu: Plik.avi
Wersja językowa  : NAPISY PL
Brak danych naprawczych


DOWNLOAD:
http://egofiles.com/FOuAplAA2RkUlwhW/Chernobyl.Diaries.2012.PLSUBBED.DVDRip.XviD-BiDA.avi


http://rapidgator.net/file/54009429/Chernobyl.Diaries.2012.PLSUBBED.DVDRip.XviD-BiDA.avi.html

Informacje

Jeżeli chcesz skomentować artykuł musisz być zarejestrowany na stronie.