EXSite.pl - Portal ze wszystkim Mamy tutaj wszystko

NIE MASZ JESZCZE KONTA? ZAREJESTRUJ SIĘ ZA DARMO!   
Przypomnij hasło X

Madagaskar 3 / Madagascar 3: Europe's Most Wanted (2012) CAM.READNFO.XVID-26K

Dodał: YOMATA 11 Czerwiec 2012 04:17


Madagaskar 3 / Madagascar 3: Europe's Most Wanted (2012) CAM.READNFO.XVID-26K

Madagaskar 3 / Madagascar 3: Europe's Most Wanted (2012) CAM.READNFO.XVID-26K

Madagaskar 3 / Madagascar 3: Europe's Most Wanted (2012) CAM.READNFO.XVID-26K
czas trwania: 1 godz. 29 min.
gatunek: Animacja, Familijny, Komedia, Przygodowy
premiera: 3 sierpnia 2012 (Polska) 17 maja 2012 (świat)
produkcja: USA
reżyseria: Eric Darnell, Tom McGrath
scenariusz: Noah Baumbach, Eric Darnell

Uwielbiane przez cale rodziny zwierzaki powrócą z nowymi przygodami. „Madagaskar 2” bił w 2009 roku w Polsce rekordy popularności (ponad 700 tys sprzedanych biletów w ciągu pierwszych 4 dni, a łącznie 2 240 000 widzów). W trzeciej części lew Alex i jego przyjaciele wciąż próbują wrócić do Nowego Jorku. Tym razem sprawy komplikują się, gdyż do przebycia jest cała Europa. Jak niezauważenie pokonać cały kontynent? Oczywiście w przebraniu trupy cyrkowej!

Format : AVI at 2.417 Kb/s
Length : 1,37 GB for 1h 21 min. 10s 400ms

Video #0 : MPEG-4 Visual at 2.279 Kb/s
Aspect : 720 x 400 (1.800) at 25.000 fps

Audio #0 : MPEG Audio at 128 Kb/s
Infos : 2 kanały, 44,1 KHz

Notes -

K 1st for the reason for READNFO... vid is missign over 6 minutes total.. 3 minutes in 2 dif spots
and then a few spots of 5 sec each.....
Source was nice jsut had a lil coloring issue and sum noise so denoised then fixed coloring best we could
then just synced up the nice cam audio we had and Presto we have a very nice 1st CAM for ya'll.. enjoy

Madagaskar 3 / Madagascar 3: Europe's Most Wanted (2012) CAM.READNFO.XVID-26K
Madagaskar 3 / Madagascar 3: Europe's Most Wanted (2012) CAM.READNFO.XVID-26K Madagaskar 3 / Madagascar 3: Europe's Most Wanted (2012) CAM.READNFO.XVID-26K Madagaskar 3 / Madagascar 3: Europe's Most Wanted (2012) CAM.READNFO.XVID-26K

Madagaskar 3 / Madagascar 3: Europe's Most Wanted (2012) CAM.READNFO.XVID-26K
Uwaga! Linki nie zakodowane tylko dla zarejestrowanych użytkowników!

Nie masz konta? Zarejestruj się za darmo!
----------------
Links are not encoded only for registered users only! Plese login or register!



Użytkownik VIP

ghwaySuper Uploader

#1 | Dodany: 11 Czerwiec 2012 08:11



Madagaskar 3 / Madagascar 3: Europe's Most Wanted (2012)
CAM.READNFO.XVID-26K


DANE TECHNiCZNE:

Format : AVI at 2.417 Kb/s
Length : 1,37 GB for 1h 21 min. 10s 400ms

Video #0 : MPEG-4 Visual at 2.279 Kb/s
Aspect : 720 x 400 (1.800) at 25.000 fps

Audio: English, MP3, 128 Kbps
Infos : 2 kanały, 44,1 KHz





DOWNLOAD - 400 MB PARTS:


HELLSHARE
Uwaga! Linki nie zakodowane tylko dla zarejestrowanych użytkowników!

Nie masz konta? Zarejestruj się za darmo!
----------------
Links are not encoded only for registered users only! Plese login or register!


TURBOBiT
Uwaga! Linki nie zakodowane tylko dla zarejestrowanych użytkowników!

Nie masz konta? Zarejestruj się za darmo!
----------------
Links are not encoded only for registered users only! Plese login or register!


RAPiDGATOR
Uwaga! Linki nie zakodowane tylko dla zarejestrowanych użytkowników!

Nie masz konta? Zarejestruj się za darmo!
----------------
Links are not encoded only for registered users only! Plese login or register!


HELLUPLOAD
Uwaga! Linki nie zakodowane tylko dla zarejestrowanych użytkowników!

Nie masz konta? Zarejestruj się za darmo!
----------------
Links are not encoded only for registered users only! Plese login or register!





DOWNLOAD - 1 LiNK:


HELLSHARE
Uwaga! Linki nie zakodowane tylko dla zarejestrowanych użytkowników!

Nie masz konta? Zarejestruj się za darmo!
----------------
Links are not encoded only for registered users only! Plese login or register!


TURBOBiT
Uwaga! Linki nie zakodowane tylko dla zarejestrowanych użytkowników!

Nie masz konta? Zarejestruj się za darmo!
----------------
Links are not encoded only for registered users only! Plese login or register!


RAPiDGATOR
Uwaga! Linki nie zakodowane tylko dla zarejestrowanych użytkowników!

Nie masz konta? Zarejestruj się za darmo!
----------------
Links are not encoded only for registered users only! Plese login or register!


HELLUPLOAD
Uwaga! Linki nie zakodowane tylko dla zarejestrowanych użytkowników!

Nie masz konta? Zarejestruj się za darmo!
----------------
Links are not encoded only for registered users only! Plese login or register!




Bez hasła!
Pliki można pobierać naprzemiennie


Użytkownik VIP

IgorowUżytkownik

#2 | Dodany: 11 Czerwiec 2012 08:39

Madagascar 3 Europe's Most Wanted.2012.CAM.Rip.XviD-WDR


Po ściągnięciu wszystkich partów należy usunąć z rozszerzenia .avi po czym wypakować pliki winrarem!

Video
ID: 0
Format: MPEG-4 Visual
Format profile: Advanced Simple@L5
Format settings, BVOP: Yes
Format settings, QPel: No
Format settings, GMC: No warppoints
Format settings, Matrix: Default (H.263)
Muxing mode: Packed bitstream
Codec ID: XVID
Codec ID/Hint: XviD
Duration: 1h 21mn
Bit rate: 1 028 Kbps
Width: 640 pixels
Height: 356 pixels
Display aspect ratio: 16:9
Frame rate: 25.000 fps
Color space: YUV
Chroma subsampling: 4:2:0
Bit depth: 8 bits
Scan type: Progressive
Bits/(Pixel*Frame): 0.181
Stream size: 597 MiB (88%)
Writing library: XviD 64

Audio
ID: 1
Format: MPEG Audio
Format version: Version 1
Format profile: Layer 3
Mode: Joint stereo
Mode extension: MS Stereo
Codec ID: 55
Codec ID/Hint: MP3
Duration: 1h 21mn
Bit rate mode: Constant
Bit rate: 128 Kbps
Channel(s): 2 channels
Sampling rate: 44.1 KHz
Stream size: 74.3 MiB (11%)
Alignment: Split accross interleaves
Interleave, duration: 40 ms (1.00 video frame)
Interleave, preload duration: 500 ms
Writing library: LAME3.98r
Encoding settings: -m j -V 4 -q 3 -lowpass 17 -b 128


http://mooshare.biz/9ulrc54rsn3g


Madagascar.3.Europe's.Most.Wanted.2012.CAM.READNFO.XVID-26K


Po ściągnięciu wszystkich partów należy usunąć z rozszerzenia .avi po czym wypakować pliki winrarem!

Sources - VIDEO: Madagaskar.3.2012.D.TS ....Thanks
AUDIO: A Friend ...Thanks
Format: AVI
Format/Info: Audio Video Interleave
File size: 1.37 GiB
Duration: 1h 21mn
Overall bit rate: 2 417 Kbps
Writing application: VirtualDubMod 1.5.10.3 | www.virtualdub-fr.org || (build 2550/release)
Writing library: VirtualDub build 32839/release

Video
ID: 0
Format: MPEG-4 Visual
Format profile: Advanced Simple@L5
Format settings, BVOP: 2
Format settings, QPel: No
Format settings, GMC: No warppoints
Format settings, Matrix: Default (H.263)
Muxing mode: Packed bitstream
Codec ID: XVID
Codec ID/Hint: XviD
Duration: 1h 21mn
Bit rate: 2 279 Kbps
Width: 720 pixels
Height: 400 pixels
Display aspect ratio: 16:9
Frame rate: 25.000 fps
Color space: YUV
Chroma subsampling: 4:2:0
Bit depth: 8 bits
Scan type: Progressive
Compression mode: Lossy
Bits/(Pixel*Frame): 0.317
Stream size: 1.29 GiB (94%)
Writing library: XviD 1.2.1 (UTC 2008-12-04)

Audio
ID: 1
Format: MPEG Audio
Format version: Version 1
Format profile: Layer 3
Mode: Joint stereo
Mode extension: MS Stereo
Codec ID: 55
Codec ID/Hint: MP3
Duration: 1h 21mn
Bit rate mode: Constant
Bit rate: 128 Kbps
Channel(s): 2 channels
Sampling rate: 44.1 KHz
Compression mode: Lossy
Stream size: 74.3 MiB (5%)
Alignment: Split accross interleaves
Interleave, duration: 40 ms (1.00 video frame)
Writing library: LAME3.98r


http://mooshare.biz/2nrdpfm4kast
http://mooshare.biz/81gm11a17b6x
Użytkownik VIP

neo 25Użytkownik

#3 | Dodany: 11 Czerwiec 2012 10:03

ok
Użytkownik VIP

pawel2000Użytkownik

#4 | Dodany: 11 Czerwiec 2012 10:25

Madagaskar 3 / Madagascar 3: Europe's Most Wanted (2012) CAM.READNFO.XVID-26K

Format : AVI at 2.417 Kb/s
Length : 1,37 GB for 1h 21 min. 10s 400ms
Video #0 : MPEG-4 Visual at 2.279 Kb/s
Aspect : 720 x 400 (1.800) at 25.000 fps
Audio #0 : MPEG Audio at 128 Kb/s
Infos : 2 kanały, 44,1 KHz




Uwaga! Linki nie zakodowane tylko dla zarejestrowanych użytkowników!

Nie masz konta? Zarejestruj się za darmo!
----------------
Links are not encoded only for registered users only! Plese login or register!
Użytkownik VIP

armin22Użytkownik

#5 | Dodany: 11 Czerwiec 2012 18:13

Madagaskar 3 / Madagascar 3: Europe's Most Wanted (2012) CAM.READNFO.XVID-26K

Format : AVI at 2.417 Kb/s
Length : 1,37 GB for 1h 21 min. 10s 400ms
Video  : MPEG-4 Visual at 2.279 Kb/s
Aspect : 720 x 400 (1.800) at 25.000 fps
Audio: English, MP3, 128 Kbps
Infos : 2 kanały, 44,1 KHz


http://turbobit.net/geobmuyphjqe/Madagascar.3.Europe_s.Most.Wanted.2012.CAM.READNFO.XVID-26K.avi.html


http://www.filelaser.com/file/AdDIgn4v0O/Madagascar.3.Europe_s.Most.Wanted.2012.CAM.READNFO.XVID-26K.avi


http://www.filefactory.com/file/2iu80zqbjan9/n/Madagascar.3.Europe_s.Most.Wanted.2012.CAM.READNFO.XVID-26K.avi


http://rapidgator.net/file/17486125/Madagascar.3.Europe_s.Most.Wanted.2012.CAM.READNFO.XVID-26K.avi.html
Użytkownik VIP

B89VIP Uploader

#6 | Dodany: 15 Sierpień 2012 14:41

Madagaskar 3 / Madagascar 3: Europe's Most Wanted (2012) Dubbing PL [kino!]
PLDUB.MD.TS.XviD-BiDA


TECH. DANE:
Release: Madagascar.3.Europes.Most.Wanted.2012.PLDUB.MD.TS.XviD-BiDA

Format            : AVI at 1.185 Kb/s
Length            : 704 MB for 1h 23 min. 1s 243ms

Video #0          : MPEG-4 Visual at 1.051 Kb/s
Aspect            : 720 x 384 (1.875) at 29.970 fps

Audio #0          : MPEG Audio at 128 Kb/s
Infos             : 2 kanały, 44,1 KHz


Wielkość Uploadu: 704 MB
Rodzaj Kompresji: RAR
Zawartość Uploadu: Plik .avi
Wersja Językowa: Dubbing PL [kino!]
Dane Naprawcze: 1%
Hasło: brak


SAMPLE:
http://www33.zippyshare.com/v/93862962/file.html


DOWNLOAD:
Uwaga! Linki nie zakodowane tylko dla zarejestrowanych użytkowników!

Nie masz konta? Zarejestruj się za darmo!
----------------
Links are not encoded only for registered users only! Plese login or register!

Informacje

Jeżeli chcesz skomentować artykuł musisz być zarejestrowany na stronie.