EXSite.pl - Portal ze wszystkim Mamy tutaj wszystko

NIE MASZ JESZCZE KONTA? ZAREJESTRUJ SIĘ ZA DARMO!   
Przypomnij hasło X

Step Up 4 3D (2012) TS.Xvid-UnKnOwN

Dodał: UP-PARADiSE 4 Sierpień 2012 11:03



Step Up 4 3D (2012) TS.Xvid-UnKnOwN

Step Up 4 3D (2012) TS.Xvid-UnKnOwN
czas trwania: 1 godz. 39 min.
gatunek: Melodramat, Muzyczny
premiera: 27 lipca 2012 (Polska) 27 lipca 2012 (świat)
produkcja: USA
reżyseria: Scott Speer
scenariusz: Jenny Mayer

Pochodzą z Miami na Florydzie. Ta?czą na ulicy, w galeriach sztuki i centrach handlowych. Nie ma dla nich rzeczy niemożliwych a każda, nawet najdziwniejsza lokalizacja może stać się parkietem. Nazywają się "The Mob". Grupie przewodzi niejaki Sean. Pewnego dnia chłopak spotyka piękną nieznajomą o imieniu Emily. Dziewczyna przyjechała do Miami aby zostać profesjonalną tancerką. Teraz będzie miała okazję uczestniczyć w czymś więcej niż tylko w zawodach tanecznych - dzielnica członków "The Mob"

DANE TECHNiCZNE:
NOTES

Encoded By .......:UnKnOwN
Runtime ..........:1:30
IMDb URL .........:http://www.imdb.com/title/tt1800741/
Language .........:English
File Size ........:1.12gb
Release Date ......... 2012
Source ......... Our Russian buddy/Your Sister
File Type ......... Single AVI
PS3 Compatible ....... If it doesn't Throw your ps off a ledge
Genre ......... Musical/Romance

Video
ID: 0
Format: MPEG-4 Visual
Format profile: Advanced Simple@L5
Format settings, BVOP: Yes
Format settings, QPel: No
Format settings, GMC: No warppoints
Format settings, Matrix: Custom
Codec ID: XVID
Codec ID/Hint: XviD
Duration: 1h 30mn
Bit rate: 1487kbps
Width: 640pixels
Height: 272pixels
Display aspect ratio: 2:35
Frame rate: 23.997fps
Color space: YUV
Chroma subsampling: 4:2:0
Bit depth: 8 bits
Scan type: Progressive
Bits/(Pixel*Frame): 0.234
Stream size: 892 MiB (86%)
Writing library: XviD 1.2.1 (UTC 2008-12-04)

Audio
ID: 1
Format: AC3
Format/Info: MPEG
Mode extension: CM (complete main)
Codec ID: 2000
Duration: 1h 30mn
Bit rate mode: Constant
Bit rate: 192kbps
Channel(s): 2channels
Channel positions: Front: L R
Sampling rate: 48.0 KHz
Bit depth: 16 bits
Stream size: 302 MiB
Alignment: Aligned on interleaves
Interleave, duration: 42 ms (1.00 video frame)
Interleave, preload duration: 512 ms

Uwaga! Linki nie zakodowane tylko dla zarejestrowanych użytkowników!

Nie masz konta? Zarejestruj się za darmo!
----------------
Links are not encoded only for registered users only! Plese login or register!

Użytkownik VIP

OzWVIP Uploader

#1 | Dodany: 4 Sierpień 2012 11:09

Step Up 4 3D (2012) TS XviD-UnKnOwN




Release Name: Step.Up.4.3D.2012.TS.XviD-UnKnOwN
Size: 1.12 GB
Video: XviD | 640?272 | 1,487 kbps
Audio: English | AC3 | 192 kbps
Runtime: 90 min



!!!DOWNLOAD!!!

Uwaga! Linki nie zakodowane tylko dla zarejestrowanych użytkowników!

Nie masz konta? Zarejestruj się za darmo!
----------------
Links are not encoded only for registered users only! Plese login or register!

# OzW !!!!!!!.
Użytkownik VIP

kaczor912Użytkownik

#2 | Dodany: 4 Sierpień 2012 13:36

JDownloader 2 + Premium Konta Częste odświeżanie 06-08-12


http://rapidgator.net/file/29874417/Jdow
nloader_Premium_06-08-12.rar.html


A tu link jakie sa dostepne konta:
http://hosting-zdjec.pl/images/133555Pro
of_tn.jpg
Użytkownik VIP

nakacu22VIP

#3 | Dodany: 5 Sierpień 2012 15:51

thx
Powracam ;)

Informacje

Jeżeli chcesz skomentować artykuł musisz być zarejestrowany na stronie.