EXSite.pl - Portal ze wszystkim Mamy tutaj wszystko

NIE MASZ JESZCZE KONTA? ZAREJESTRUJ SIĘ ZA DARMO!   
Przypomnij hasło X

Hit and Run (2012) TS.XviD-MATiNE

Dodał: Coder775 14 Wrzesień 2012 21:45


Hit and Run (2012) TS.XviD-MATiNE

Hit and Run (2012) TS.XviD-MATiNE

Hit and Run (2012) TS.XviD-MATiNE

iNFO:

czas trwania: 1 godz. 40 min.
gatunek: Akcja, Komedia rom.
premiera: 22 sierpnia 2012 (świat)
produkcja: USA
reżyseria: David Palmer, Dax Shepard
scenariusz: Dax Shepard

OPiS:

Film opowiada historię kierowcy, specjalizującego się w przestępstwach. Bohater jest objęty Programem Ochrony świadków, lecz nie powstrzymuje go to od zawiezienia swojej dziewczyny do Los Angeles, gdzie ma zgłosić się na rozmowę kwalifikacyjną do wymarzonej pracy. Na jego trop wpada ścigający go gangster.

GENERAL iNFORMATiON:


Complete name :Hit and Run 2012 TS XviD - MATiNE.avi
Format : AVI
Format/Info : Audio Video Interleave
File size : 1.25 GiB
Duration : 1h 33mn
Overall bit rate : 1 924 Kbps
Writing library : VirtualDub build 32842/release

Video
ID : 0
Format : MPEG-4 Visual
Format profile : Advanced Simple@L5
Format settings, BVOP : 2
Format settings, QPel : No
Format settings, GMC : No warppoints
Format settings, Matrix : Default (H.263)
Muxing mode : Packed bitstream
Codec ID : XVID
Codec ID/Hint : XviD
Duration : 1h 33mn
Bit rate : 1 786 Kbps
Width : 720 pixels
Height : 304 pixels
Display aspect ratio : 2.35:1
Frame rate : 25.000 fps
Color space : YUV
Chroma subsampling : 4:2:0
Bit depth : 8 bits
Scan type : Progressive
Compression mode : Lossy
Bits/(Pixel*Frame) : 0.326
Stream size : 1.16 GiB (93%)
Writing library : XviD 64

Audio
ID : 1
Format : MPEG Audio
Format version : Version 1
Format profile : Layer 3
Mode : Joint stereo
Mode extension : MS Stereo
Codec ID : 55
Codec ID/Hint : MP3
Duration : 1h 33mn
Bit rate mode : Constant
Bit rate : 128 Kbps
Channel(s) : 2 channels
Sampling rate : 44.1 KHz
Compression mode : Lossy
Stream size : 85.3 MiB (7%)
Alignment : Split accross interleaves
Interleave, duration : 40 ms (1.00 video frame)
Writing library : LAME3.99r
Encoding settings : -m j -V 4 -q 2 -lowpass 17 -b 128



Hit and Run (2012) TS.XviD-MATiNE

TURBOBIT:

Uwaga! Linki nie zakodowane tylko dla zarejestrowanych użytkowników!

Nie masz konta? Zarejestruj się za darmo!
----------------
Links are not encoded only for registered users only! Plese login or register!


UPLOADED:

Uwaga! Linki nie zakodowane tylko dla zarejestrowanych użytkowników!

Nie masz konta? Zarejestruj się za darmo!
----------------
Links are not encoded only for registered users only! Plese login or register!


HELLSHARE:

Uwaga! Linki nie zakodowane tylko dla zarejestrowanych użytkowników!

Nie masz konta? Zarejestruj się za darmo!
----------------
Links are not encoded only for registered users only! Plese login or register!



Informacje

Jeżeli chcesz skomentować artykuł musisz być zarejestrowany na stronie.