EXSite.pl - Portal ze wszystkim Mamy tutaj wszystko

NIE MASZ JESZCZE KONTA? ZAREJESTRUJ SIĘ ZA DARMO!   
Przypomnij hasło X

Gangster / Lawless (2012) CAM.XViD.AC3-TODE

Dodał: Coder775 14 Wrzesień 2012 21:55


Gangster / Lawless (2012) CAM.XViD.AC3-TODE

Gangster / Lawless (2012) CAM.XViD.AC3-TODE

Gangster / Lawless (2012) CAM.XViD.AC3-TODE

iNFO:

czas trwania: 1 godz. 55 min.
gatunek: Dramat, Kryminał, Western
premiera: 30 listopada 2012 (Polska) 19 maja 2012 (świat)
produkcja: USA
reżyseria: John Hillcoat
scenariusz: Nick Cave

OPiS:

Ameryka czasów prohibicji. Bracia Bondurant, podobnie jak wszyscy w ich okolicy, żyją z nielegalnej produkcji alkoholu. Są powszechnie znani ze swej odwagi i nieustępliwości. Interes idzie dobrze, dopóki z Chicago nie przybywa agent specjalny Charlie Rakes będący na usługach skorumpowanego prokuratora. Ogłasza on, że wszyscy producenci alkoholu muszą płacić wysokie łapówki. Bracia Bondurant nie uznają propozycji nie do odrzucenia i jako jedyni odmawiają. W okolicy wybucha krwawa wojna.

GENERAL iNFORMATiON:


Format : AVI
Format/Info : Audio Video Interleave
File size : 692 MiB
Duration : 1h 49mn
Overall bit rate : 886 Kbps
Writing application : Lavf54.26.100

Video
ID : 0
Format : MPEG-4 Visual
Format profile : Simple@L3
Format settings, BVOP : No
Format settings, QPel : No
Format settings, GMC : No warppoints
Format settings, Matrix : Default (H.263)
Codec ID : XVID
Codec ID/Hint : XviD
Duration : 1h 49mn
Bit rate : 810 Kbps
Width : 640 pixels
Height : 280 pixels
Display aspect ratio : 2.25:1
Frame rate : 29.970 fps
Color space : YUV
Chroma subsampling : 4:2:0
Bit depth : 8 bits
Scan type : Progressive
Compression mode : Lossy
Bits/(Pixel*Frame) : 0.151
Stream size : 633 MiB (91%)
Writing library : XviD 64

Audio
ID : 1
Format : AC-3
Format/Info : Audio Coding 3
Mode extension : CM (complete main)
Format settings, Endianness : Big
Codec ID : 2000
Duration : 1h 49mn
Bit rate mode : Constant
Bit rate : 64.0 Kbps
Channel(s) : 2 channels
Channel positions : Front: L R
Sampling rate : 48.0 KHz
Bit depth : 16 bits
Compression mode : Lossy
Stream size : 50.0 MiB (7%)
Alignment : Aligned on interleaves
Interleave, duration : 32 ms (0.96 video frame)



Gangster / Lawless (2012) CAM.XViD.AC3-TODE

TURBOBIT:

Uwaga! Linki nie zakodowane tylko dla zarejestrowanych użytkowników!

Nie masz konta? Zarejestruj się za darmo!
----------------
Links are not encoded only for registered users only! Plese login or register!


UPLOADED:

Uwaga! Linki nie zakodowane tylko dla zarejestrowanych użytkowników!

Nie masz konta? Zarejestruj się za darmo!
----------------
Links are not encoded only for registered users only! Plese login or register!


HELLSHARE:

Uwaga! Linki nie zakodowane tylko dla zarejestrowanych użytkowników!

Nie masz konta? Zarejestruj się za darmo!
----------------
Links are not encoded only for registered users only! Plese login or register!



Informacje

Jeżeli chcesz skomentować artykuł musisz być zarejestrowany na stronie.