EXSite.pl - Portal ze wszystkim Mamy tutaj wszystko

NIE MASZ JESZCZE KONTA? ZAREJESTRUJ SIĘ ZA DARMO!   
Przypomnij hasło X

Bullet To The Head (2013) HQ.DiVX.CLEAN.AUDIO - C00KIEBOY

Dodał: OzW 28 Luty 2013 11:37


Bullet To The Head (2013) HQ.DiVX.CLEAN.AUDIO - C00KIEBOY

Bullet To The Head (2013) HQ.DiVX.CLEAN.AUDIO - C00KIEBOY


Bullet To The Head (2013) HQ.DiVX.CLEAN.AUDIO - C00KIEBOY

gatunek: Kryminał, Thriller, Akcja
produkcja: USA
premiera: 14 listopada 2012 (świat)
reżyseria: Walter Hill
scenariusz: Alessandro Camon, Walter Hill


Zawodowy zabójca Jimmy Bobo (Sylvester Stallone) staje się sprzymierze?cem nowojorskiego detektywa, Taylora Kwon (Sung Kang). Niespotykany duet łączy jedna rzecz: obaj stracili swoich partnerów i poszukują tego samego człowieka odpowiedzialnego za te morderstwa, Keegana (Jason Momoa). Prowadząc w tej sprawie własne dochodzenie przemierzają obskurne zaułki Nowego Orleanu. Gotowi poświęcić wszystko w imię zemsty, zlikwidują każdego, kto stanie im na drodze.




Bullet To The Head (2013) HQ.DiVX.CLEAN.AUDIO - C00KIEBOY



Rozmiar pliku: 1.886 GiB (2024755646 bajtów)
Czas trwania: 01:26:12.372 (5172372 ms)
Ogólne bitrate pliku: 3 132 Kbps
Format: AVI

Video FPS: 29.970
Video kodek: DivX 5
Video bitrate: 2 989 Kbps
Video rozdzielczość: 720x360
Video rozmiar: 1.80 GiB (95%)
Video proporcje obrazu: 6.154

Audio format: MPEG Audio
Audio format wynik:
Audio bitrate: 128 Kbps
Audio liczba kanałów: 2
Audio sampling rate: 48.0 KHz
Audio resolution: 16 bits
Audio rozmiar: 78.9 MiB (4%)



SAMPLE
Uwaga! Linki nie zakodowane tylko dla zarejestrowanych użytkowników!

Nie masz konta? Zarejestruj się za darmo!
----------------
Links are not encoded only for registered users only! Plese login or register!




Bullet To The Head (2013) HQ.DiVX.CLEAN.AUDIO - C00KIEBOY


Uwaga! Linki nie zakodowane tylko dla zarejestrowanych użytkowników!

Nie masz konta? Zarejestruj się za darmo!
----------------
Links are not encoded only for registered users only! Plese login or register!




Użytkownik VIP

OzWVIP Uploader

#1 | Dodany: 28 Luty 2013 11:38

wink
# OzW !!!!!!!.
Użytkownik VIP

KliomtVIP Uploader

#2 | Dodany: 28 Luty 2013 11:39

brawo
✿♫ ❤‿♥ ☆•°*”˜♪˜”*°•☆ ◔‿◕ ♫✿
Użytkownik VIP

valdooVIP Uploader

#3 | Dodany: 28 Luty 2013 15:39

Bullet to the Head 2013 HDts XviD AC3-SmY

General
Complete name : Bullet.to.the.Head.2013.HDts.XviD.AC3-SmY.avi
Format : AVI
Format/Info : Audio Video Interleave
Format profile : OpenDML
Format settings : rec
File size : 1.32 GiB
Duration : 1h 26mn
Overall bit rate : 2 197 Kbps
Writing application : AVI-Mux GUI 1.17.8, Aug 30 2008 12:36:58

Video
ID : 0
Format : MPEG-4 Visual
Format profile : Advanced Simple@L5
Format settings, BVOP : 2
Format settings, QPel : No
Format settings, GMC : No warppoints
Format settings, Matrix : Default (MPEG)
Codec ID : XVID
Codec ID/Hint : XviD
Duration : 1h 26mn
Bit rate : 2 063 Kbps
Width : 720 pixels
Height : 404 pixels
Display aspect ratio : 16:9
Frame rate : 29.970 fps
Color space : YUV
Chroma subsampling : 4:2:0
Bit depth : 8 bits
Scan type : Progressive
Compression mode : Lossy
Bits/(Pixel*Frame) : 0.237
Stream size : 1.24 GiB (94%)
Writing library : XviD 1.2.1 (UTC 2008-12-04)

Audio
ID : 1
Format : AC-3
Format/Info : Audio Coding 3
Mode extension : CM (complete main)
Codec ID : 2000
Duration : 1h 26mn
Bit rate mode : Constant
Bit rate : 128 Kbps
Channel(s) : 2 channels
Channel positions : Front: L R
Sampling rate : 44.1 KHz
Bit depth : 16 bits
Compression mode : Lossy
Stream size : 78.9 MiB (6%)
Alignment : Aligned on interleaves
Interleave, duration : 70 ms (2.09 video frames)
Interleave, preload duration : 209 ms
Title : yapian

http://www.5fantastic.pl/plikosfera/57573/video/7395633
Użytkownik VIP

freefraggVIP

#4 | Dodany: 1 Marzec 2013 15:29

Bullet_to_the_Head.2013.HDts.XviD.AC3-SmY

DANE TECHNICZNE
Format : AVI at 2.197 Kb/s
Length : 1,32 GB for 1h 26 min. 2s 280ms

Video #0 : MPEG-4 Visual at 2.063 Kb/s
Aspect : 720 x 404 (1.778) at 29.970 fps

Audio #0 : AC-3 Audio at 128 Kb/s
Infos : 2 kanały, 48,0 KHz


OPIS UPLOADU
Wielkość...........: 1320 MB
Kompresja..........: brak/rar
Zawartość..........: plik .avi
Dane naprawcze.....: brak
Wersja językowa....: ENG
Hasło:.............: brak


Download:
(można pobierać zamiennie z serwerów) lub w 1 pliku


Uwaga! Linki nie zakodowane tylko dla zarejestrowanych użytkowników!

Nie masz konta? Zarejestruj się za darmo!
----------------
Links are not encoded only for registered users only! Plese login or register!


BRAK HASŁA
Użytkownik VIP

P0SiTiVEUżytkownik

#5 | Dodany: 18 Czerwiec 2013 14:19



Kula w łeb / Bullet To The Head (2013) PL.BRRip.XViD-MORS / Lektor PL



Catshare
Uwaga! Linki nie zakodowane tylko dla zarejestrowanych użytkowników!

Nie masz konta? Zarejestruj się za darmo!
----------------
Links are not encoded only for registered users only! Plese login or register!

Egofiles
Uwaga! Linki nie zakodowane tylko dla zarejestrowanych użytkowników!

Nie masz konta? Zarejestruj się za darmo!
----------------
Links are not encoded only for registered users only! Plese login or register!

5Fantastic
Uwaga! Linki nie zakodowane tylko dla zarejestrowanych użytkowników!

Nie masz konta? Zarejestruj się za darmo!
----------------
Links are not encoded only for registered users only! Plese login or register!

Użytkownik VIP

kirman08Użytkownik

#6 | Dodany: 23 Czerwiec 2013 18:51

Kula w łeb / Bullet To The Head (2013) 480p.BRRip.XviD.AC3-sav



Dane Techniczne

Bullet To The Head (2013) 480p.BRRip.XviD.AC3-sav
                    
           MOViE iNFORMATiON :

Release Date .................: 25.05.2013            
Source  V/A ..................: 720p.BluRay.x264-Felony
Ripper     ...................: savage40      
                                                    
Language......................: English
Subtitles ....................: Napisy PL [osobny plik]

Video Codec/Bitrate ..........: XviD | 1681 Kb/s
Video Resolution .............: 720*384
Frame Rate ...................: 23.976 fps        
                    
Audio Codec/Channels/Bitrate .: AC3 | 6 ch | 448 kb/s

Size..........................: 1,37 GB    
Runtime ......................: 1:31:33




Download:

EgoFiles:
http://egofiles.com/5rPiPWH9YHW8OdXE


CatShare:
http://catshare.net/92EJlq5FfsvHSz5a
CHCESZ JAKIS FILM/GRE??
PISZ NA PW A CI GO WRZUCE I SOBIE SCIAGNIESZ
POZDRO

Informacje

Jeżeli chcesz skomentować artykuł musisz być zarejestrowany na stronie.