EXSite.pl - Portal ze wszystkim Mamy tutaj wszystko

NIE MASZ JESZCZE KONTA? ZAREJESTRUJ SIĘ ZA DARMO!   
Przypomnij hasło X

The Hangover Part III (2013) R6.XViD-UNiQUE

Dodał: OzW 7 Czerwiec 2013 17:57


# The Hangover Part III (2013) R6.XViD-UNiQUE

The Hangover Part III (2013) R6.XViD-UNiQUE


# OPiS | iNFO

Po śmierci ojca Alana Phil, Stu i Doug postanawiają pocieszyć kumpla z watahy. Za sprawą Chowa, który ukradł sporo kasy, znów wpadną w tarapaty.

# DANE TECHNiCZNE


Format : AVI
Format/Info : Audio Video Interleave
File size : 1.37 GiB
Duration : 1h 38mn
Overall bit rate : 1 996 Kbps
Writing application : VirtualDubMod 1.5.10.2 (build 2540/release)
Writing library : VirtualDubMod build 2540/release

Video
ID : 0
Format : MPEG-4 Visual
Format profile : Advanced Simple@L5
Format settings, BVOP : 2
Format settings, QPel : No
Format settings, GMC : No warppoints
Format settings, Matrix : Default (H.263)
Muxing mode : Packed bitstream
Codec ID : XVID
Codec ID/Hint : XviD
Duration : 1h 38mn
Bit rate : 1 858 Kbps
Width : 720 pixels
Height : 304 pixels
Display aspect ratio : 2.35:1
Frame rate : 23.976 fps
Color space : YUV
Chroma subsampling : 4:2:0
Bit depth : 8 bits
Scan type : Progressive
Compression mode : Lossy
Bits/(Pixel*Frame) : 0.354
Stream size : 1.28 GiB (93%)
Writing library : XviD 64

Audio
ID : 1
Format : MPEG Audio
Format version : Version 1
Format profile : Layer 3
Codec ID : 55
Codec ID/Hint : MP3
Duration : 1h 38mn
Bit rate mode : Constant
Bit rate : 128 Kbps
Channel(s) : 2 channels
Sampling rate : 48.0 KHz
Compression mode : Lossy
Stream size : 90.0 MiB (6%)
Alignment : Aligned on interleaves
Interleave, duration : 42 ms (1.00 video frame)
Interleave, preload duration : 504 ms
Writing library : LAME3.98.

WKLEJONE CHINSKIE SUBBY







# DOWNLOAD

Uwaga! Linki nie zakodowane tylko dla zarejestrowanych użytkowników!

Nie masz konta? Zarejestruj się za darmo!
----------------
Links are not encoded only for registered users only! Plese login or register!








The Hangover Part III (2013) R6.XViD-UNiQUE




Użytkownik VIP

OzWVIP Uploader

#1 | Dodany: 7 Czerwiec 2013 17:57

winked
# OzW !!!!!!!.
Użytkownik VIP

ghwaySuper Uploader

#2 | Dodany: 7 Czerwiec 2013 18:02

ok
Użytkownik VIP

ExeliteUżytkownik

#3 | Dodany: 7 Czerwiec 2013 20:52

Uwaga! Linki nie zakodowane tylko dla zarejestrowanych użytkowników!

Nie masz konta? Zarejestruj się za darmo!
----------------
Links are not encoded only for registered users only! Plese login or register!
,,Nic nie jest prawdą, Wszystko jest dozwolone"
Użytkownik VIP

kowal952Użytkownik

#4 | Dodany: 9 Czerwiec 2013 18:26

z napisami chi?skimi ;/
Użytkownik VIP

matx24Użytkownik

#5 | Dodany: 10 Czerwiec 2013 22:28

Kac Vegas 3 / The Hangover Part III (2013)
PL.TS.x264.AC3-b53
Lektor PL [IVO]

DANE TECHNICZNE:

Format : Matroska at 992 Kb/s
Length : 670 MB for 1h 34 min. 24s 208ms

Video #0 : AVC at 543 Kb/s
Aspect : 720 x 304 (2.368) at 29.970 fps

Audio #0 : AC-3 at 448 Kb/s
Infos : 2 kanały, 48,0 KHz


OPIS UPLOADU:

Wielkosc Calosci : ~ 670 MB
Rodzaj kompresji : brak
Zawartosc Uploadu:
plik .MKV
Wersja jezykowa  : Lektor PL [IVO]
Dane Naprawcze   : brak


DOWNLOAD:

CATSHARE
Uwaga! Linki nie zakodowane tylko dla zarejestrowanych użytkowników!

Nie masz konta? Zarejestruj się za darmo!
----------------
Links are not encoded only for registered users only! Plese login or register!
Użytkownik VIP

23piotrekUżytkownik

#6 | Dodany: 12 Czerwiec 2013 20:19

Podobno po napisach ko?cowych jest jakaś śmieszna scenka a w R6 jej nie ma. Ma ktoś może jakiegoś linka do niej

Informacje

Jeżeli chcesz skomentować artykuł musisz być zarejestrowany na stronie.