EXSite.pl - Portal ze wszystkim Mamy tutaj wszystko

NIE MASZ JESZCZE KONTA? ZAREJESTRUJ SIĘ ZA DARMO!   
Przypomnij hasło X

The Black Eyed Peas The E.N.D. World Tour Live from Staples Center (2010) 720p.BRRip.Xvid.AC3-LmB

Dodał: ampatinis 2 Grudzień 2011 22:25


The Black Eyed Peas The E.N.D. World Tour Live from Staples Center (2010) 720p.BRRip.Xvid.AC3-LmB

The Black Eyed Peas The E.N.D. World Tour Live from Staples Center (2010) 720p.BRRip.Xvid.AC3-LmB

The Black Eyed Peas The E.N.D. World Tour Live from Staples Center (2010) 720p.BRRip.Xvid.AC3-LmB
The E.N.D. World Tour (also known as The Energy Never Dies World Tour) is a concert tour by American hip hop group, the Black Eyed Peas. The tour supports the group's fifth studio album, The E.N.D., which was released in June 2009.

The tour began in Japan on September 15, 2009, with shows also performed in Australia and New Zealand in 2009. The group will tour North America starting in February 2010, with dates also planned for Europe starting in Dublin, Ireland in May. The group performed 2 shows in Las Vegas at the end of 2009 as a warm up to their extensive North American tour. The tour is also expected to reach South America and more parts of Asia during 2010. It is the group's biggest tour production-wise to date, with the group's female vocalist Fergie stating that they are "trying to up [their] game" and the shows will "utilize a lot of the technology that's out there". The E.N.D. World Tour is backed by presenting sponsor BlackBerry?, and Bacardi? as the official spirit of the tour.


Format : AVI
Format/Info : Audio Video Interleave
Format profile : OpenDML
File size : 2.47 GiB
Duration : 1h 59mn
Overall bit rate : 2 947 Kbps
Writing application : VirtualDubMod 1.5.10.2 (build 2540/release)
Writing library : VirtualDubMod build 2540/release

Video
ID : 0
Format : MPEG-4 Visual
Format profile : Advanced Simple@L5
Format settings, BVOP : 1
Format settings, QPel : No
Format settings, GMC : No warppoints
Format settings, Matrix : Default (H.263)
Codec ID : XVID
Codec ID/Hint : XviD
Duration : 1h 59mn
Bit rate : 2 485 Kbps
Width : 1 280 pixels
Height : 720 pixels
Display aspect ratio : 16:9
Frame rate : 29.970 fps
Color space : YUV
Chroma subsampling : 4:2:0
Bit depth : 8 bits
Scan type : Progressive
Compression mode : Lossy
Bits/(Pixel*Frame) : 0.090
Stream size : 2.08 GiB (84%)
Writing library : XviD 1.2.1 (UTC 2008-12-04)

Audio
ID : 1
Format : AC-3
Format/Info : Audio Coding 3
Mode extension : CM (complete main)
Codec ID : 2000
Duration : 1h 59mn
Bit rate mode : Constant
Bit rate : 448 Kbps
Channel(s) : 6 channels
Channel positions : Front: L C R, Side: L R, LFE
Sampling rate : 48.0 KHz
Bit depth : 16 bits
Compression mode : Lossy
Stream size : 385 MiB (15%)
Alignment : Split accross interleaves
Interleave, duration : 33 ms (1.00 video frame)
Interleave, preload duration : 500 ms


The Black Eyed Peas The E.N.D. World Tour Live from Staples Center (2010) 720p.BRRip.Xvid.AC3-LmB

The Black Eyed Peas The E.N.D. World Tour Live from Staples Center (2010) 720p.BRRip.Xvid.AC3-LmB

The Black Eyed Peas The E.N.D. World Tour Live from Staples Center (2010) 720p.BRRip.Xvid.AC3-LmB
Uwaga! Linki nie zakodowane tylko dla zarejestrowanych użytkowników!

Nie masz konta? Zarejestruj się za darmo!
----------------
Links are not encoded only for registered users only! Plese login or register!



Użytkownik VIP

milo1972Użytkownik

#1 | Dodany: 5 Grudzień 2011 11:42

thx
Użytkownik VIP

Kamila666Użytkownik

#2 | Dodany: 15 Grudzień 2011 00:49

thx

Informacje

Jeżeli chcesz skomentować artykuł musisz być zarejestrowany na stronie.