EXSite.pl - Portal ze wszystkim Mamy tutaj wszystko

NIE MASZ JESZCZE KONTA? ZAREJESTRUJ SIĘ ZA DARMO!   
Przypomnij hasło X

Korn - The Encounter (2011) DVDRip.MKV.AC3.RoB.PR3DATOR-RG

Dodał: ampatinis 12 Grudzień 2011 18:49


Korn - The Encounter (2011) DVDRip.MKV.AC3.RoB.PR3DATOR-RG

Korn - The Encounter (2011) DVDRip.MKV.AC3.RoB.PR3DATOR-RG

Korn - The Encounter (2011) DVDRip.MKV.AC3.RoB.PR3DATOR-RG
Korn Live: The Encounter is a live release by American metal band, Korn in 2010 to promote the studio album Korn III: Remember Who You Are. It premiered on Sunday July 11, 2010 on HDNet, and then streamed on the band's Myspace profile. Although a live performance piece, the concert itself has no audience beyond production crew.

In July a number of viral videos were released by the band, the first two videos included amateur footage of crop circles and unidentified flying objects, while the second two videos included news footage of the phenomenons identifying its location as Kern County. The Korn logo could also be seen in one of the crop circles. On July 7 the band announced "Korn Live: The Encounter, A Concert for Korn III: Remember Who You Are" a live concert filmed June 24 at the crop circles. The concert would be premiered via HDNet on July 11, and the day after via MySpace. The unusual setting for the concert was inspired by Pink Floyd's Live at Pompeii concert, the 80-minute concert included several new songs from the upcoming album, as well as older songs and fan favorites. Davis noted that "the setting and the mood took us into a totally new direction musically. We took the opportunity to stretch out and experiment with the performance" while Shaffer described it as "a new frontier musically for Korn". "Need To" and "Coming Undone" were cut from the final broadcast. Clips of the performance from "Let the Guilt Go" were used in the music video for said song


Format : Matroska
File size : 2.30 GiB
Duration : 1h 52mn
Overall bit rate : 2 923 Kbps
Writing application : Lavf51.12.1
Writing library : Lavf51.12.1

Video #1

ID : 1
Format : AVC
Format/Info : Advanced Video Codec
Format profile : Main@L3.0
Format settings, CABAC : Yes
Format settings, ReFrames : 5 frames
Codec ID : V_MPEG4/ISO/AVC
Duration : 1h 52mn
Bit rate : 2 545 Kbps
Width : 852 pixels
Height : 480 pixels
Display aspect ratio : 16:9
Frame rate mode : Variable
Frame rate : 23.976 fps
Color space : YUV
Chroma subsampling : 4:2:0
Bit depth : 8 bits
Scan type : Progressive
Bits/(Pixel*Frame) : 0.260
Stream size : 2.00 GiB (87%)
Language : English

Audio #2

ID : 2
Format : AC-3
Format/Info : Audio Coding 3
Mode extension : CM (complete main)
Codec ID : A_AC3
Duration : 1h 52mn
Bit rate mode : Constant
Bit rate : 320 Kbps
Channel(s) : 2 channels
Channel positions : Front: L R
Sampling rate : 44.1 KHz
Bit depth : 16 bits
Compression mode : Lossy
Stream size : 258 MiB (11%)
Language : English




1. Intro/Uber Time
2. Oildale
3. Pop A Pill
4. The Inspiration (Interview Interlude)
5. Need To
6. Coming Undone
7. Bakersfield (Interview Interlude)
8. Let The Guilt Go
9. Here To Stay
10. Falling Away From Me
11. Crazy Heavy Shit (Interview Interlude)
12. Jam #1
13. Throw Me Away
14. Jam #2
15. Move on
16. Crop Circles (Interview Interlude)
17. The Past
18. Jam #3
19. Freak on A Leash
20. Jam #4
21. Are You Ready To Live?
22. Line-Up Changes (Interview Interlude)
23. Jam #5
24. Shoots And Ladders
25. I'm Happy Right Now (Interview Interlude)
26. Clown
27. Got The Life


Korn - The Encounter (2011) DVDRip.MKV.AC3.RoB.PR3DATOR-RG

Korn - The Encounter (2011) DVDRip.MKV.AC3.RoB.PR3DATOR-RG Korn - The Encounter (2011) DVDRip.MKV.AC3.RoB.PR3DATOR-RG

Korn - The Encounter (2011) DVDRip.MKV.AC3.RoB.PR3DATOR-RG
Uwaga! Linki nie zakodowane tylko dla zarejestrowanych użytkowników!

Nie masz konta? Zarejestruj się za darmo!
----------------
Links are not encoded only for registered users only! Plese login or register!



Informacje

Jeżeli chcesz skomentować artykuł musisz być zarejestrowany na stronie.