EXSite.pl - Portal ze wszystkim Mamy tutaj wszystko

NIE MASZ JESZCZE KONTA? ZAREJESTRUJ SIĘ ZA DARMO!   
Przypomnij hasło X

Queen Days Of Our Lives (2011) 720p.BRRip.Xvid.AC3-LmB

Dodał: ampatinis 16 Grudzień 2011 18:53


Queen Days Of Our Lives (2011) 720p.BRRip.Xvid.AC3-LmB

Queen Days Of Our Lives (2011) 720p.BRRip.Xvid.AC3-LmB

Queen Days Of Our Lives (2011) 720p.BRRip.Xvid.AC3-LmB
Format : AVI
Format/Info : Audio Video Interleave
Format profile : OpenDML
File size : 2.45 GiB
Duration : 1h 58mn
Overall bit rate : 2 971 Kbps
Writing application : VirtualDubMod 1.5.10.2 (build 2540/release)
Writing library : VirtualDubMod build 2540/release


Video
ID : 0
Format : MPEG-4 Visual
Format profile : Advanced Simple@L5
Format settings, BVOP : 1
Format settings, QPel : No
Format settings, GMC : No warppoints
Format settings, Matrix : Default (H.263)
Codec ID : XVID
Codec ID/Hint : XviD
Duration : 1h 58mn
Bit rate : 2 512 Kbps
Width : 1 280 pixels
Height : 720 pixels
Display aspect ratio : 16:9
Frame rate : 23.976 fps
Color space : YUV
Chroma subsampling : 4:2:0
Bit depth : 8 bits
Scan type : Progressive
Compression mode : Lossy
Bits/(Pixel*Frame) : 0.114
Stream size : 2.08 GiB (85%)
Writing library : XviD 1.2.1 (UTC 2008-12-04)

Audio
ID : 1
Format : AC-3
Format/Info : Audio Coding 3
Mode extension : CM (complete main)
Codec ID : 2000
Duration : 1h 58mn
Bit rate mode : Constant
Bit rate : 448 Kbps
Channel(s) : 2 channels
Channel positions : Front: L R
Sampling rate : 48.0 KHz
Bit depth : 16 bits
Compression mode : Lossy
Stream size : 379 MiB (15%)
Alignment : Split accross interleaves
Interleave, duration : 42 ms (1.00 video frame)
Interleave, preload duration : 500 ms


Queen Days Of Our Lives (2011) 720p.BRRip.Xvid.AC3-LmB

Queen Days Of Our Lives (2011) 720p.BRRip.Xvid.AC3-LmB


Queen Days Of Our Lives (2011) 720p.BRRip.Xvid.AC3-LmB
Uwaga! Linki nie zakodowane tylko dla zarejestrowanych użytkowników!

Nie masz konta? Zarejestruj się za darmo!
----------------
Links are not encoded only for registered users only! Plese login or register!



Użytkownik VIP

ChMakaveliUżytkownik

#1 | Dodany: 16 Grudzień 2011 19:01

ok Szkoda tylko że ta wstawka nie doczeka sie raczej napisów :(
Użytkownik VIP

cacumenUżytkownik

#2 | Dodany: 16 Grudzień 2011 20:41

ChMakaveli,
Szkoda tylko że ta wstawka nie doczeka sie raczej napisów :(


DA SI? ZROZUMIEĆ ok thx
Użytkownik VIP

junooUżytkownik

#3 | Dodany: 18 Grudzień 2011 20:53

Learn English orginal jest spokoooooooooo
Użytkownik VIP

peny2Użytkownik

#4 | Dodany: 9 Styczeń 2012 21:52

Queen - Days Of Our Lives 2011 BRRIP X264 AC3-CrEwSaDe



Dane Techniczne:

File: Queen.Days.Of.Our.Lives.2011.BRRIP.X264.AC3.CrEwSaDe.mkv
Size: 731708347 bytes (697.81 MiB), duration: 01:58:17, avg.bitrate: 825 kb/s
Audio: ac3, 48000 Hz, stereo
Video: h264, yuv420p, 720x400, 23.98 fps(r)  




Download:

UPLOADED

Uwaga! Linki nie zakodowane tylko dla zarejestrowanych użytkowników!

Nie masz konta? Zarejestruj się za darmo!
----------------
Links are not encoded only for registered users only! Plese login or register!

Informacje

Jeżeli chcesz skomentować artykuł musisz być zarejestrowany na stronie.