EXSite.pl - Portal ze wszystkim Mamy tutaj wszystko

NIE MASZ JESZCZE KONTA? ZAREJESTRUJ SIĘ ZA DARMO!   
Przypomnij hasło X

Red Hot Chili Peppers - Live At Bonaroo Festival 2012 720p BRRip

Dodał: lacoste696 24 Czerwiec 2012 14:52


Red Hot Chili Peppers - Live At Bonaroo Festival 2012 720p BRRip

Red Hot Chili Peppers - Live At Bonaroo Festival 2012 720p BRRip

Red Hot Chili Peppers - Live At Bonaroo Festival 2012 720p BRRip
Complete name : Red.Hot.Chili.Peppers - Live.At.Bonaroo.Festival.2012.720p.BRRip.XviD.AC3-Voltage.avi
Format : AVI
Format/Info : Audio Video Interleave
File size : 2.76 GiB
Duration : 1h 54mn
Overall bit rate : 3 457 Kbps

Video
ID : 0
Format : MPEG-4 Visual
Format profile : Advanced Simple@L5
Format settings, BVOP : 2
Format settings, QPel : No
Format settings, GMC : No warppoints
Format settings, Matrix : Default (H.263)
Codec ID : XVID
Codec ID/Hint : XviD
Duration : 1h 54mn
Bit rate : 2 995 Kbps
Width : 1 280 pixels
Height : 720 pixels
Display aspect ratio : 16:9
Frame rate : 29.970 fps
Color space : YUV
Chroma subsampling : 4:2:0
Bit depth : 8 bits
Scan type : Progressive
Compression mode : Lossy
Bits/(Pixel*Frame) : 0.108
Stream size : 2.39 GiB (87%)
Writing library : XviD 1.2.1 (UTC 2008-12-04)
[/b]



Audio

ID : 1
Format : AC-3
Format/Info : Audio Coding 3
Mode extension : CM (complete main)
Format settings, Endianness : Big
Codec ID : 2000
Duration : 1h 54mn
Bit rate mode : Constant
Bit rate : 448 Kbps
Channel(s) : 2 channels
Channel positions : Front: L R
Sampling rate : 48.0 KHz
Bit depth : 16 bits
Compression mode : Lossy
Stream size : 367 MiB (13%)
Alignment : Split accross interleaves
Interleave, duration : 42 ms (1.00 video frame)
Interleave, preload duration : 500 ms


Audio.............:: English
Subtitles........:: None


Red Hot Chili Peppers - Live At Bonaroo Festival 2012 720p BRRip
Red Hot Chili Peppers - Live At Bonaroo Festival 2012 720p BRRip

Red Hot Chili Peppers - Live At Bonaroo Festival 2012 720p BRRip
Uwaga! Linki nie zakodowane tylko dla zarejestrowanych użytkowników!

Nie masz konta? Zarejestruj się za darmo!
----------------
Links are not encoded only for registered users only! Plese login or register!


Red Hot Chili Peppers - Live At Bonaroo Festival 2012 720p BRRip
Uwaga! Linki nie zakodowane tylko dla zarejestrowanych użytkowników!

Nie masz konta? Zarejestruj się za darmo!
----------------
Links are not encoded only for registered users only! Plese login or register!


Zobacz inne moje newsy na EXSite.pl

Użytkownik VIP

lupinskimUżytkownik

#1 | Dodany: 29 Czerwiec 2012 09:59

Super wstawka ;]
Dzięki wielkie ale niech ktoś dorzuci hellshare. please;]
Użytkownik VIP

PitrukUżytkownik

#2 | Dodany: 6 Lipiec 2012 16:26

cierpliwosci love pozdrawiam
Użytkownik VIP

kubrik696Użytkownik

#3 | Dodany: 16 Lipiec 2012 04:58

mozna na rapida??
Użytkownik VIP

lupinskimUżytkownik

#4 | Dodany: 27 Lipiec 2012 10:55

No dzisiaj graja na Bemowie. Niestety nie moge pojechać - więc dajcie looknąć ten koncercik - dajcie hellshare - please ;]
Użytkownik VIP

beta321Użytkownik

#5 | Dodany: 3 Wrzesień 2012 12:38

Może ma ktoś podzielone na party?

Informacje

Jeżeli chcesz skomentować artykuł musisz być zarejestrowany na stronie.