EXSite.pl - Portal ze wszystkim Mamy tutaj wszystko

NIE MASZ JESZCZE KONTA? ZAREJESTRUJ SIĘ ZA DARMO!   
Przypomnij hasło X

Gwiezdne Wojny: Wojny Klonów / Star Wars: The Clone Wars (2008 - 2011) PL.720p.BluRay/HDTV.x264-MeraK SEZONY 1-3 POLSKI DUBBING

Dodał: CrashRed 25 Grudzień 2011 13:45


Gwiezdne Wojny: Wojny Klonów / Star Wars: The Clone Wars (2008 - 2011) PL.720p.BluRay/HDTV.x264-MeraK SEZONY 1-3 POLSKI DUBBING

Gwiezdne Wojny: Wojny Klonów / Star Wars: The Clone Wars (2008 - 2011) PL.720p.BluRay/HDTV.x264-MeraK SEZONY 1-3 POLSKI DUBBING

Gwiezdne Wojny: Wojny Klonów / Star Wars: The Clone Wars (2008 - 2011) PL.720p.BluRay/HDTV.x264-MeraK SEZONY 1-3 POLSKI DUBBING
http://www.filmweb.pl/serial/Gwiezdne+Wojny+Wojny+Klon%C3%B3w-2008-281791

czas trwania: 22 min.
gatunek: Animacja, Przygodowy, Sci-Fi

Wojny klonów rozprzestrzeniły się na całą galaktykę. Bohaterscy rycerze Jedi walczą by utrzymać porządek i przywrócić pokój galaktyce. Coraz więcej systemów pada ofiarą ciemnej strony Mocy ponieważ Republika Galaktyczna ugina się pod władzą Separatystów i ich nowej ogromnej armii droidów. Anakin Skywalker i jego ucze? Padawan Ahsoka Tano znajdują się na misji z daleko idącymi konsekwencjami. Pierwsze to spotkanie twarzą w twarz z lordem kryminalistów Jabbą the Hutt. Jednak Hrabia Dooku i jego
groźni agenci, wliczając w to nikczemną Asajj Ventress upewniają się, ze Anakin i Ashoka zawodzą przy w ich poszukiwaniu. Przez ten czas, na liniach frontu Wojen Klonów, Obi-Wan Kenobi i Mistrzr Yoda prowadzą masywną armię klonów by stawić opór siłom zbrojnym ciemnej strony


Format : Matroska
File size : 662 MiB
Duration : 22mn 37s
Overall bit rate : 4 089 Kbps
Video
ID : 1
Format : AVC
Format/Info : Advanced Video Codec
Format profile : High@L4.1
Format settings, CABAC : Yes
Duration : 22mn 37s
Bit rate : 3 960 Kbps
Width : 1 280 pixels
Height : 544 pixels
Scan type : Progressive
Bits/(Pixel*Frame) : 0.237
Stream size : 628 MiB (95%)
Writing library : x264 core 78 r1318 fe83a90
Language : English
Audio
Format : AC-3
Duration : 22mn 37s
Bit rate mode : Constant
Bit rate : 128 Kbps
Channel(s) : 2 channels
Stream size : 20.7 MiB (3%)
Title : DD 2.0 Polski
Language : Polish
Text
ID : 3
Format : UTF-8



Gwiezdne Wojny: Wojny Klonów / Star Wars: The Clone Wars (2008 - 2011) PL.720p.BluRay/HDTV.x264-MeraK SEZONY 1-3 POLSKI DUBBING
Uwaga! Linki nie zakodowane tylko dla zarejestrowanych użytkowników!

Nie masz konta? Zarejestruj się za darmo!
----------------
Links are not encoded only for registered users only! Plese login or register!




Format                           : Matroska
File size                        : 580 MiB
Duration                         : 22mn 35s
Overall bit rate                 : 3 589 Kbps
Video
ID                               : 1
Format                           : AVC
Format/Info                      : Advanced Video Codec
Format profile                   : High@L3.1
Duration                         : 22mn 35s
Bit rate                         : 2 825 Kbps
Width                            : 1 280 pixels
Height                           : 544 pixels
Display aspect ratio             : 2.35:1
Frame rate                       : 23.976 fps
Stream size                      : 444 MiB (77%)
Writing library                  : x264 core 105 r1732 2b04482
Language                         : English
Audio #1
Format                           : AC-3
Duration                         : 22mn 35s
Bit rate mode                    : Constant
Bit rate                         : 128 Kbps
Channel(s)                       : 2 channels
Stream size                      : 20.7 MiB (4%)
Title                            : DD 2.0 Polski
Language                         : Polish
Audio #2
Format                           : AC-3
Duration                         : 22mn 35s
Bit rate mode                    : Constant
Bit rate                         : 640 Kbps
Channel(s)                       : 6 channels

Stream size                      : 103 MiB (18%)
Title                            : DD 5.1 Angielski
Language                         : English
Text #1
Title                            : Polski
Language                         : Polish
Text #2
Title                            : Angielski
Language                         : English

Uwaga! Linki nie zakodowane tylko dla zarejestrowanych użytkowników!

Nie masz konta? Zarejestruj się za darmo!
----------------
Links are not encoded only for registered users only! Plese login or register!







Star.Wars.The.Clone.Wars.S03E01.PL.720p.BluRay.x264-MeraK
General
Format : Matroska
File size : 766 MiB
Duration : 22mn 35s
Overall bit rate : 4 737 Kbps
Video #1
ID : 1
Format : AVC
Format/Info : Advanced Video Codec
Format profile : High@L4.1
Duration : 22mn 34s
Bit rate : 3 005 Kbps
Nominal bit rate : 3 100 Kbps
Width : 1 280 pixels
Height : 544 pixels
Display aspect ratio : 2.35:1
Frame rate : 23.976 fps
Stream size : 485 MiB (63%)
Audio #2
Format : AC-3
Duration : 22mn 35s
Bit rate : 128 Kbps
Channel(s) : 2 channels
Stream size : 20.7 MiB (3%)
Language : Polish
Audio #3
Format : DTS
Duration : 22mn 35s
Bit rate : 1 510 Kbps
Channel(s) : 6 channels
Stream size : 244 MiB (32%)
Language : English
Text #4
ID : 4
Language : Polish
Text #5
ID : 5
Language : English

Uwaga! Linki nie zakodowane tylko dla zarejestrowanych użytkowników!

Nie masz konta? Zarejestruj się za darmo!
----------------
Links are not encoded only for registered users only! Plese login or register!




Użytkownik VIP

CrashRedVIP

#1 | Dodany: 8 Październik 2011 14:49

ok
Użytkownik VIP

janboUżytkownik

#2 | Dodany: 22 Październik 2011 09:24

super wstawka.dodasz kolejne odc.
Użytkownik VIP

CrashRedVIP

#3 | Dodany: 4 Grudzień 2011 15:13

niedlugo dodam odcinki brakujące sezonu 2 i 3 tak ze bez obaw bedzie komplet
Użytkownik VIP

tajson49Użytkownik

#4 | Dodany: 11 Grudzień 2011 16:37

thx
Użytkownik VIP

peny2Użytkownik

#5 | Dodany: 14 Styczeń 2012 12:40

Star.Wars.The.Clone.Wars.S04E14.HDTV.XviD-2HD




Dane Techniczne:

Format            : Matroska at 4.541 Kb/s
Length            : 729 MB for 22 min. 26s 592ms
Video #0          : AVC at 4.066 Kb/s
Aspect            : 1280 x 720 (1.778) at 23.976 fps
Audio #0          : AC-3 at 384 Kb/s
Infos             : 6 kanałów, 48,0 KHz
Language          : en  


Opis uploadu:

Wielkość: 175 MB
Kompresja: brak
Zawartość uploadu: plik .avi
Jezyk: angielski
Dane naprawcze: brak


Download:

UPLOADED

Uwaga! Linki nie zakodowane tylko dla zarejestrowanych użytkowników!

Nie masz konta? Zarejestruj się za darmo!
----------------
Links are not encoded only for registered users only! Plese login or register!
Użytkownik VIP

MrUmciaUżytkownik

#6 | Dodany: 24 Luty 2012 22:19

linki mógłby ktoś z aktualizować cały S2
Użytkownik VIP

H1sVIP Uploader

#7 | Dodany: 29 Marzec 2012 07:27

Gwiezdne Wojny Wojny Klonów (2008) - Sezon 1 HD 720p DUBBING PL
NAZWA RELEASU: Star.Wars.The.Clone.Wars.S**E**.720p.PL.HDTV.x264 *2HD AAF CTU HDA*
OGÓLNE: Matroska, mkv, ~ 500MB, ~ 22 min
WIDEO: 1280x720 (720p), AVC ~ 3050 Kbps, FPS: 23.976
AUDIO: Polski (porfesjonalny) Dubbing - AC3 5.1 ~ 192 kbps
NAPISY: Brak
INFORMACJE EXTRA: Party można pobierać naprzemiennie, Party zawierają dane naprawcze %

HELLSHARE:
Uwaga! Linki nie zakodowane tylko dla zarejestrowanych użytkowników!

Nie masz konta? Zarejestruj się za darmo!
----------------
Links are not encoded only for registered users only! Plese login or register!


NETLOAD:
Uwaga! Linki nie zakodowane tylko dla zarejestrowanych użytkowników!

Nie masz konta? Zarejestruj się za darmo!
----------------
Links are not encoded only for registered users only! Plese login or register!
Moje Uploady:
KLIK!
Użytkownik VIP

surfer1983Użytkownik

#8 | Dodany: 10 Kwiecień 2012 12:04

można prosić o odświeżenie 2 i 3 sezonu.
Użytkownik VIP

seba60sruUżytkownik

#9 | Dodany: 28 Wrzesień 2012 22:59

gorszych serwów nie było rapidgator daj linki ban
Użytkownik VIP

Maxz30Użytkownik

#10 | Dodany: 1 Październik 2012 14:25

Czy można prosić o odświeżenie sezonów 2 i 3 ?
Użytkownik VIP

nasirus1983Użytkownik

#11 | Dodany: 20 Luty 2013 09:48

w sezonie 1, padły liniki do odcinków od 15 do 22.
Użytkownik VIP

zacze_kUżytkownik

#12 | Dodany: 13 Wrzesień 2014 11:13

Gwiezdne Wojny: Wojny Klonów / Star Wars: The Clone Wars (2010) {Sezon 3} PL.720p.BluRay.x264-MeraK | Dubbing PL

Przykładowy Odcinek:

Format: MATROSKA,WEBM at 4 737 Kbp/s
Length: 765 MiB for 0h 22min 35sec

Video: H264 Visual at Kbp/s
Aspect: 1280x544 at 24.00 fps

Audio: AC3 at 128 Kbp/s
Info: 2 channels stereo, 48.00 KHz



wielkość całości: 16.7 GB
rodzaj kompresji: bez
zawartość uploadu: plik .mkv
wersja językowa: pol (profesjonalny dubbing)

Uwaga! Linki nie zakodowane tylko dla zarejestrowanych użytkowników!

Nie masz konta? Zarejestruj się za darmo!
----------------
Links are not encoded only for registered users only! Plese login or register!

Informacje

Jeżeli chcesz skomentować artykuł musisz być zarejestrowany na stronie.