EXSite.pl - Portal ze wszystkim Mamy tutaj wszystko

NIE MASZ JESZCZE KONTA? ZAREJESTRUJ SIĘ ZA DARMO!   
Przypomnij hasło X

Battlestar Galactica (2004 - 2009) PL.720p.BluRay.x264-MeraK / SEZON 1 POLSKI LEKTOR

Dodał: CrashRed 19 Listopad 2011 15:46


Battlestar Galactica (2004 - 2009) PL.720p.BluRay.x264-MeraK / SEZON 1 POLSKI LEKTOR

Battlestar Galactica (2004 - 2009) PL.720p.BluRay.x264-MeraK / SEZON 1 POLSKI LEKTOR

Battlestar Galactica (2004 - 2009) PL.720p.BluRay.x264-MeraK / SEZON 1 POLSKI LEKTOR
http://www.filmweb.pl/serial/Battlestar+Galactica-2004-181823

produkcja: USA, Wielka Brytania
gatunek: Przygodowy, Sci-Fi

Minęło 40 lat odkąd 12 ludzkich kolonii słyszało po raz ostatni o swoich "dzieciach" Cylonach, inteligentnych maszynach, które wyzwoliły się i wypowiedziały wojnę swoim panom i stwórcom - ludziom, a następnie zniknęli. W nagłym niszczycielskim ataku Cyloni powrócili i zniszczyli ludzkie kolonie. Zwycięstwo ułatwiło im to, iż część z nich wygląda już jak ludzie. Atak zmusił Komandora Williama Adamę do przywrócenia do gotowości bojowej jego statek wojenny-muzeum, Battlestar Galactica i wraz z
pilotami myśliwców stacjonujących na Battlestar rozpocząć walkę z najeźdźcą. Niestety walka z agresorem jest trudna i Komandor Adama zmuszony jest prowadzić niewielką flotę ocalałych ludzi w samotną wędrówkę w poszukiwaniu trzynastej kolonii - planety zwanej Ziemią


Battlestar.Galactica.Pilot.Part.1.PL.2003.720p.BluRay.x264-MeraK.mkv
General
Format : Matroska
File size : 2.18 GiB
Duration : 1h 34mn
Overall bit rate : 3 291 Kbps
Encoded date : UTC 2011-09-10 05:00:42

Video #1
ID : 1
Format : AVC
Format/Info : Advanced Video Codec
Format profile : High@L3.1
Codec ID : V_MPEG4/ISO/AVC
Duration : 1h 34mn
Bit rate : 2 649 Kbps
Nominal bit rate : 2 713 Kbps
Width : 1 280 pixels
Height : 720 pixels
Display aspect ratio : 16:9
Frame rate : 23.976 fps
Colorimetry : 4:2:0
Stream size : 1.75 GiB (80%)

Audio #2 Battlestar Galactica Sezon 1 (2003-2004) [Lektor PL 5.1/DTS EN] 720p.BluRay.x264-MeraK
ID : 2
Format : AC-3
Duration : 1h 34mn
Bit rate : 384 Kbps
Channel(s) : 6 channels
Channel positions : Front: L C R, Surround: L R, LFE
Sampling rate : 48.0 KHz
Stream size : 260 MiB (12%)
Language : Polish

Audio #3 Battlestar Galactica Sezon 1 (2003-2004) [Lektor PL 5.1/DTS EN] 720p.BluRay.x264-MeraK
ID : 3
Format : AC-3
Duration : 1h 34mn
Bit rate : 192 Kbps
Channel(s) : 2 channels
Channel positions : L R
Sampling rate : 48.0 KHz
Stream size : 130 MiB (6%)
Title : English Commentary DD 2.0 Stereo @ 192kbps
Text
Language : Polish Battlestar Galactica Sezon 1 (2003-2004) [Lektor PL 5.1/DTS EN] 720p.BluRay.x264-MeraK
Language : English Battlestar Galactica Sezon 1 (2003-2004) [Lektor PL 5.1/DTS EN] 720p.BluRay.x264-MeraK
Language : French
Language : Spanish



Battlestar Galactica (2004 - 2009) PL.720p.BluRay.x264-MeraK / SEZON 1 POLSKI LEKTOR
Uwaga! Linki nie zakodowane tylko dla zarejestrowanych użytkowników!

Nie masz konta? Zarejestruj się za darmo!
----------------
Links are not encoded only for registered users only! Plese login or register!




Użytkownik VIP

kostucha-666Użytkownik

#2 | Dodany: 8 Październik 2011 23:42

SERIAL JEST DOBRY I BARDZO CIEKAWY
Użytkownik VIP

slayer194Użytkownik

#3 | Dodany: 15 Październik 2011 16:55

dobry to mało powiedziane xD

mam nadzieję że wstawisz resztę :P
Użytkownik VIP

13dziubek13Użytkownik

#4 | Dodany: 6 Listopad 2011 20:23

Wielkie dzięki
z miłą chęcią obejrzę jeszcze raz
thx
Użytkownik VIP

mluc83Użytkownik

#5 | Dodany: 4 Grudzień 2012 21:29

wrzuci ktoś działające pliki jeszvcze raz? pls
Użytkownik VIP

CeberebekUżytkownik

#6 | Dodany: 8 Październik 2013 10:18

Battlestar Galactica (Sezon 1-4) DVDRip XviD Lektor PL

Przykładowe dane tech.odcinka S01E00:

Nazwa pliku: Battlestar Galactica S01E00-PL.DVDRip.avi
Rozmiar pliku: 1.426 GiB (1530888192 bajtów)
Czas trwania: 02:55:05.088 (10505088 ms)
Ogólne bitrate pliku: 1 166 Kbps
Format: AVI

Video FPS: 25.000
Video kodek: XviD
Video bitrate: 836 Kbps
Video rozdzielczość: 640x352
Video rozmiar: 1.02 GiB (72%)
Video proporcje obrazu: 16:9

Audio format: MPEG Audio
Audio format wynik:
Audio bitrate: 320 Kbps
Audio liczba kanałów: 2
Audio sampling rate: 48.0 KHz
Audio resolution:
Audio rozmiar: 401 MiB (27%)

Uwaga! Linki nie zakodowane tylko dla zarejestrowanych użytkowników!

Nie masz konta? Zarejestruj się za darmo!
----------------
Links are not encoded only for registered users only! Plese login or register!

Użytkownik VIP

CeberebekUżytkownik

#7 | Dodany: 9 Październik 2013 18:21

Battlestar Galactica (Sezon 1-4) DVDRip XviD Lektor PL

Przykładowe dane tech.odcinka S01E00:

Nazwa pliku: Battlestar Galactica S01E00-PL.DVDRip.avi
Rozmiar pliku: 1.426 GiB (1530888192 bajtów)
Czas trwania: 02:55:05.088 (10505088 ms)
Ogólne bitrate pliku: 1 166 Kbps
Format: AVI

Video FPS: 25.000
Video kodek: XviD
Video bitrate: 836 Kbps
Video rozdzielczość: 640x352
Video rozmiar: 1.02 GiB (72%)
Video proporcje obrazu: 16:9

Audio format: MPEG Audio
Audio format wynik:
Audio bitrate: 320 Kbps
Audio liczba kanałów: 2
Audio sampling rate: 48.0 KHz
Audio resolution:
Audio rozmiar: 401 MiB (27%)

Uwaga! Linki nie zakodowane tylko dla zarejestrowanych użytkowników!

Nie masz konta? Zarejestruj się za darmo!
----------------
Links are not encoded only for registered users only! Plese login or register!
Użytkownik VIP

artur99bUżytkownik

#8 | Dodany: 8 Marzec 2014 13:38

zrobi ktoś up w jakości 720p?
Użytkownik VIP

ocean72Użytkownik

#9 | Dodany: 9 Luty 2016 11:46

Ma ktoś odcinek 1x0-pilot w wersji 720p?

Ma ktoś odcinek 1x0-pilot w wersji 720p?

Informacje

Jeżeli chcesz skomentować artykuł musisz być zarejestrowany na stronie.