EXSite.pl - Portal ze wszystkim Mamy tutaj wszystko

NIE MASZ JESZCZE KONTA? ZAREJESTRUJ SIĘ ZA DARMO!   
Przypomnij hasło X

Battlestar Galactica (2004 - 2009) PL.720p.BluRay.x264-MeraK / SEZON 2 POLSKI LEKTOR

Dodał: CrashRed 11 Grudzień 2011 15:08


Battlestar Galactica (2004 - 2009) PL.720p.BluRay.x264-MeraK / SEZON 2 POLSKI LEKTOR

Battlestar Galactica (2004 - 2009) PL.720p.BluRay.x264-MeraK / SEZON 2 POLSKI LEKTOR

Battlestar Galactica (2004 - 2009) PL.720p.BluRay.x264-MeraK / SEZON 2 POLSKI LEKTOR
http://www.filmweb.pl/serial/Battlestar+Galactica-2004-181823

produkcja: USA, Wielka Brytania
gatunek: Przygodowy, Sci-Fi

Minęło 40 lat odkąd 12 ludzkich kolonii słyszało po raz ostatni o swoich "dzieciach" Cylonach, inteligentnych maszynach, które wyzwoliły się i wypowiedziały wojnę swoim panom i stwórcom - ludziom, a następnie zniknęli. W nagłym niszczycielskim ataku Cyloni powrócili i zniszczyli ludzkie kolonie. Zwycięstwo ułatwiło im to, iż część z nich wygląda już jak ludzie. Atak zmusił Komandora Williama Adamę do przywrócenia do gotowości bojowej jego statek wojenny-muzeum, Battlestar Galactica i wraz z
pilotami myśliwców stacjonujących na Battlestar rozpocząć walkę z najeźdźcą. Niestety walka z agresorem jest trudna i Komandor Adama zmuszony jest prowadzić niewielką flotę ocalałych ludzi w samotną wędrówkę w poszukiwaniu trzynastej kolonii - planety zwanej Ziemią


General
Format : Matroska
File size : 2.18 GiB
Duration : 43mn 41s
Overall bit rate : 7 133 Kbp
Video #1
Format : AVC
Format profile : High@L3.1
Duration : 43mn 38s
Bit rate : 4 906 Kbps
Nominal bit rate : 5 046 Kbps
Width : 1 280 pixels
Height : 720 pixels
Display aspect ratio : 16:9
Frame rate : 23.976 fps
Stream size 1.50 GiB (69%)
Audio #2 Battlestar Galactica Sezon 2 (2005
Duration : 43mn 41s
Bit rate : 384 Kbps
Channel(s) : 6 channels
Stream size : 120 MiB (5%)
Language : Polish
Audio #3 Battlestar Galactica Sezon 2
Format : DTS
Duration : 43mn 41s
Bit rate : 1 510 Kbps
Channel(s) : 6 channels
Stream size : 472 MiB (21%)
Language : English
Audio #4 Battlestar Galactica Sezon 2 (2005
Format/Info : Audio Coding 3
Duration : 43mn 41s
Bit rate : 192 Kbps
Channel(s) : 2 channels
Channel positions : L R
Sampling rate : 48.0 KHz
Language : English



Battlestar Galactica (2004 - 2009) PL.720p.BluRay.x264-MeraK / SEZON 2 POLSKI LEKTOR
Uwaga! Linki nie zakodowane tylko dla zarejestrowanych użytkowników!

Nie masz konta? Zarejestruj się za darmo!
----------------
Links are not encoded only for registered users only! Plese login or register!



Użytkownik VIP

derek1992Użytkownik

#2 | Dodany: 11 Grudzień 2011 22:06

Uwaga! Linki nie zakodowane tylko dla zarejestrowanych użytkowników!

Nie masz konta? Zarejestruj się za darmo!
----------------
Links are not encoded only for registered users only! Plese login or register!
Użytkownik VIP

krenekUżytkownik

#3 | Dodany: 27 Grudzień 2011 02:07

Pytanko... 3 i 4 sezon też wrzucisz??
Użytkownik VIP

art.plUżytkownik

#4 | Dodany: 30 Grudzień 2011 07:05

3 i 4 nie została wydana w PL :/
I nie wiadomo czy w/g zostanie wydana
Użytkownik VIP

CeberebekUżytkownik

#5 | Dodany: 8 Październik 2013 10:15

Battlestar Galactica (Sezon 1-4) DVDRip XviD Lektor PL

Przykładowe dane tech.odcinka S01E00:

Nazwa pliku: Battlestar Galactica S01E00-PL.DVDRip.avi
Rozmiar pliku: 1.426 GiB (1530888192 bajtów)
Czas trwania: 02:55:05.088 (10505088 ms)
Ogólne bitrate pliku: 1 166 Kbps
Format: AVI

Video FPS: 25.000
Video kodek: XviD
Video bitrate: 836 Kbps
Video rozdzielczość: 640x352
Video rozmiar: 1.02 GiB (72%)
Video proporcje obrazu: 16:9

Audio format: MPEG Audio
Audio format wynik:
Audio bitrate: 320 Kbps
Audio liczba kanałów: 2
Audio sampling rate: 48.0 KHz
Audio resolution:
Audio rozmiar: 401 MiB (27%)

Uwaga! Linki nie zakodowane tylko dla zarejestrowanych użytkowników!

Nie masz konta? Zarejestruj się za darmo!
----------------
Links are not encoded only for registered users only! Plese login or register!

Użytkownik VIP

CeberebekUżytkownik

#6 | Dodany: 9 Październik 2013 18:23

Battlestar Galactica (Sezon 1-4) DVDRip XviD Lektor PL

Przykładowe dane tech.odcinka S01E00:

Nazwa pliku: Battlestar Galactica S01E00-PL.DVDRip.avi
Rozmiar pliku: 1.426 GiB (1530888192 bajtów)
Czas trwania: 02:55:05.088 (10505088 ms)
Ogólne bitrate pliku: 1 166 Kbps
Format: AVI

Video FPS: 25.000
Video kodek: XviD
Video bitrate: 836 Kbps
Video rozdzielczość: 640x352
Video rozmiar: 1.02 GiB (72%)
Video proporcje obrazu: 16:9

Audio format: MPEG Audio
Audio format wynik:
Audio bitrate: 320 Kbps
Audio liczba kanałów: 2
Audio sampling rate: 48.0 KHz
Audio resolution:
Audio rozmiar: 401 MiB (27%)

Uwaga! Linki nie zakodowane tylko dla zarejestrowanych użytkowników!

Nie masz konta? Zarejestruj się za darmo!
----------------
Links are not encoded only for registered users only! Plese login or register!

Informacje

Jeżeli chcesz skomentować artykuł musisz być zarejestrowany na stronie.