EXSite.pl - Portal ze wszystkim Mamy tutaj wszystko

NIE MASZ JESZCZE KONTA? ZAREJESTRUJ SIĘ ZA DARMO!   
Przypomnij hasło X

Uwaga TVN: To jest eksmisja (2012) PL.HDTV.XviD-LevyTV

Dodał: levytv 8 Wrzesień 2012 10:28


Uwaga TVN: To jest eksmisja (2012) PL.HDTV.XviD-LevyTV

Uwaga TVN: To jest eksmisja (2012) PL.HDTV.XviD-LevyTV

Uwaga TVN: To jest eksmisja (2012) PL.HDTV.XviD-LevyTV
magazyn reporterówod 12 lat

W programie są poruszane najbardziej kontrowersyjne tematy. Dziennikarze zajmują się tymi wydarzeniami i zjawiskami, które wzbudzają największe emocje, niepokoją, a zarazem ciekawią widzów. Dzięki reporterskim interwencjom na jaw wychodzą absurdalne sytuacje oraz niekompetencja osób pełniących ważne urzędy. Dociekliwi dziennikarze zajmują się również problemami widzów, którzy zwracają się do nich o pomoc, gdyż są bezsilni wobec biurokracji czy prawa. W nowej formule magazyn nadawany jest w oprawie wirtualnego studia. Prowadzi Zbigniew Łuczy?ski.

Format : AVI
Format/Info : Audio Video Interleave
File size : 178 MiB
Duration : 15mn 15s
Overall bit rate : 1 630 Kbps
Writing application : MEncoder SVN-r30881(20100311-gcc4.3.3)
Writing library : MPlayer

Video
ID : 0
Format : MPEG-4 Visual
Format profile : Advanced Simple@L5
Format settings, BVOP : 2
Format settings, QPel : No
Format settings, GMC : No warppoints
Format settings, Matrix : Default (H.263)
Codec ID : XVID
Codec ID/Hint : XviD
Duration : 15mn 15s
Bit rate : 1 490 Kbps
Width : 850 pixels
Height : 430 pixels
Display aspect ratio : 16:9
Frame rate : 25.000 fps
Color space : YUV
Chroma subsampling : 4:2:0
Bit depth : 8 bits
Scan type : Progressive
Compression mode : Lossy
Bits/(Pixel*Frame) : 0.163
Stream size : 163 MiB (91%)
Writing library : XviD 1.2.1 (UTC 2008-12-04)

Audio
ID : 1
Format : MPEG Audio
Format version : Version 1
Format profile : Layer 3
Mode : Joint stereo
Mode extension : MS Stereo
Codec ID : 55
Codec ID/Hint : MP3
Duration : 15mn 13s
Bit rate mode : Constant
Bit rate : 128 Kbps
Channel(s) : 2 channels
Sampling rate : 44.1 KHz
Compression mode : Lossy
Delay relative to video : 40ms
Stream size : 13.9 MiB (8%)
Alignment : Aligned on interleaves
Interleave, duration : 26 ms (0.65 video frame)
Interleave, preload duration : 522 ms


Uwaga TVN: To jest eksmisja (2012) PL.HDTV.XviD-LevyTV
Uwaga TVN: To jest eksmisja (2012) PL.HDTV.XviD-LevyTV

Uwaga TVN: To jest eksmisja (2012) PL.HDTV.XviD-LevyTV
Uwaga! Linki nie zakodowane tylko dla zarejestrowanych użytkowników!

Nie masz konta? Zarejestruj się za darmo!
----------------
Links are not encoded only for registered users only! Plese login or register!



Informacje

Jeżeli chcesz skomentować artykuł musisz być zarejestrowany na stronie.