EXSite.pl - Portal ze wszystkim Mamy tutaj wszystko

NIE MASZ JESZCZE KONTA? ZAREJESTRUJ SIĘ ZA DARMO!   
Przypomnij hasło X

American Horror Story (2011) PL.WEB-DL.XviD-TVM4iN | POLSKi LEKTOR

Dodał: wi3czny 2 Listopad 2012 13:15


American Horror Story (2011) PL.WEB-DL.XviD-TVM4iN | POLSKi LEKTOR


American Horror Story (2011) PL.WEB-DL.XviD-TVM4iN | POLSKi LEKTOR

American Horror Story (2011) PL.WEB-DL.XviD-TVM4iN | POLSKi LEKTOR



###iNFORMACJE O FiLMiE###

Tytuł............................................: American Horror Story
Ocena.............................................: IMDB - 8.3/10 (33162), Filmweb - 7.9/10 (8568)
Produkcja.........................................: USA
Gatunek...........................................: Horror, Thriller psychologiczny
Czas trwania.....................................: 12 x 42 min.
Premiera..........................................: 05.10.2011 - świat
Sezon.............................................: 1
Epizod............................................: 1-12
Twórcy...........................................: Ryan Murphy, Brad Falchuk


###PRZYKŁADOWY ODCiNEK###

General : American.Horror.Story.S01E01.PL.WEB-DL.XViD-TVM4iN
Format : AVI at 1.493 Kb/s
Length : 551 MB for 51 min. 37s 11ms

Video #0 : MPEG-4 Visual at 1.359 Kb/s
Aspect : 640 x 352 (1.818) at 23.976 fps

Audio #0 : MPEG Audio at 121 Kb/s
Infos : 2 kanały, 48,0 KHz



American Horror Story (2011) PL.WEB-DL.XviD-TVM4iN | POLSKi LEKTOR

American Horror Story (2011) PL.WEB-DL.XviD-TVM4iN | POLSKi LEKTOR
American Horror Story (2011) PL.WEB-DL.XviD-TVM4iN | POLSKi LEKTOR
American Horror Story (2011) PL.WEB-DL.XviD-TVM4iN | POLSKi LEKTOR

American Horror Story (2011) PL.WEB-DL.XviD-TVM4iN | POLSKi LEKTOR

Uwaga! Linki nie zakodowane tylko dla zarejestrowanych użytkowników!

Nie masz konta? Zarejestruj się za darmo!
----------------
Links are not encoded only for registered users only! Plese login or register!


Użytkownik VIP

wi3cznyUżytkownik

#1 | Dodany: 2 Listopad 2012 12:59

Jeszcze dziś reszta :-)
Użytkownik VIP

grzegorz3033Użytkownik

#2 | Dodany: 2 Listopad 2012 16:35

proszę o 11 odc na turbobit.net
thx
Użytkownik VIP

klaudyna7253Użytkownik

#3 | Dodany: 3 Listopad 2012 00:03

dajcie na rapida co??:((prrrosze
Użytkownik VIP

BJUUżytkownik

#4 | Dodany: 4 Listopad 2012 13:57

Szkoda że nie ma ego files ten serwer jakoś tak polubiłem.
Użytkownik VIP

kaszpir1Użytkownik

#5 | Dodany: 27 Styczeń 2013 10:24

kurde 4 odcinek ... Link padł :(
Użytkownik VIP

Mateusz481Użytkownik

#6 | Dodany: 15 Luty 2013 18:38

Moje linki cały sezon
Format: AVI 1203 Kb/s
Rozmiar: 352 MB 40min. 51s 600ms
Video: MPEG-4 Visual 1058 Kb/s
Rozdzielczość: 640 x 352 (1.818) 25.000 fps
Audio: MPEG Audio 132 Kb/s
Kanały: 2 kanały, 48.0 KHz

http://egofiles.com/onLe5gd8DtKdh41J
http://egofiles.com/KLHfYTcxTLbAwxxS
http://egofiles.com/KLHfYTcxTLbAwxxS
http://egofiles.com/7GktxMMtzrCTPHKj
http://egofiles.com/cWHhpMjk7Cm5E1ti
http://egofiles.com/wtRct3f1jbopd0Uu
http://egofiles.com/TRt1LdkFdChbdCDn
http://egofiles.com/NzX3lMHGNJ2pcJDI
http://egofiles.com/ye18gBxdYoyUF0mG
http://egofiles.com/dpfeUSrbMupbUyiy
http://egofiles.com/RLnt6GF5eKCW1bnM
http://egofiles.com/2jKkNLkBaJu587nl
Użytkownik VIP

art-eUżytkownik

#7 | Dodany: 21 Sierpień 2013 11:22

Mateusz481,
LInki padły, możesz wrzucic jeszcze raz?
Użytkownik VIP

astyUżytkownik

#8 | Dodany: 2 Listopad 2013 14:28

American Horror Story S01E01-12 PL.720p WEB-DL X264-TVM4iN

(Kompletny sezon)

Dane tech:
[SPOILER]Format : Matroska
Format version : Version 2
File size : 1.52 GiB
Duration : 51mn 37s
Overall bit rate : 4 223 Kbps
Encoded date : UTC 2011-11-13 09:52:35
Writing application : mkvmerge v5.0.1 ('Es ist Sommer') built on Oct 13 2011 06:24:21
Writing library : libebml v1.2.2 + libmatroska v1.3.0

Video
ID : 1
Format : AVC
Format/Info : Advanced Video Codec
Format profile : High@L3.1
Format settings, CABAC : No
Format settings, ReFrames : 2 frames
Muxing mode : Header stripping
Codec ID : V_MPEG4/ISO/AVC
Duration : 51mn 37s
Bit rate : 3 947 Kbps
Width : 1 280 pixels
Height : 720 pixels
Display aspect ratio : 16:9
Frame rate mode : Constant
Frame rate : 23.976 fps
Color space : YUV
Chroma subsampling : 4:2:0
Bit depth : 8 bits
Scan type : Progressive
Bits/(Pixel*Frame) : 0.179
Stream size : 1.42 GiB (93%)
Language : English
Default : Yes
Forced : No
Color primaries : BT.709
Transfer characteristics : BT.709
Matrix coefficients : BT.709

Audio
ID : 2
Format : AC-3
Format/Info : Audio Coding 3
Mode extension : CM (complete main)
Format settings, Endianness : Big
Muxing mode : Header stripping
Codec ID : A_AC3
Duration : 51mn 37s
Bit rate mode : Constant
Bit rate : 192 Kbps
Channel(s) : 2 channels
Channel positions : Front: L R
Sampling rate : 48.0 KHz
Bit depth : 16 bits
Compression mode : Lossy
Stream size : 70.9 MiB (5%)
Default : Yes
Forced : No



Uwaga! Linki nie zakodowane tylko dla zarejestrowanych użytkowników!

Nie masz konta? Zarejestruj się za darmo!
----------------
Links are not encoded only for registered users only! Plese login or register!
Użytkownik VIP

prywatkaUżytkownik

#9 | Dodany: 2 Lipiec 2014 16:08

Treść komentarza została edytowana z powodu naruszenia/łamania regulaminu/reguł.
***Brak dodatkowego mirrora / Brak hide***Regulacje kwestii remote***

Suttree
Użytkownik VIP

slucaUploader

#10 | Dodany: 24 Październik 2014 14:29

American Horror Story [Sezon 1] PL.WEB-DL.XviD-TVM4iN *LEKTOR PL*

Release : American.Horror.Story.S01E03.PL.WEB-DL.XviD-TVM4iN
Format : AVI
Length : 349 MiB (42mn 38s 640ms)
Video #0 : XVID | 640x352 (16:9) | 25.000FPS | 1 013 Kbps
Audio #0 : MPEG Audio | 2 channels, 48.0 KHz | 128 Kbps

DOWNLOAD: Catshare | Rapidu | Fileshark | Uploadable
Linki zabezpieczone. Wklej adres do przeglądarki aby uzyskać dostęp.
Uwaga! Linki nie zakodowane tylko dla zarejestrowanych użytkowników!

Nie masz konta? Zarejestruj się za darmo!
----------------
Links are not encoded only for registered users only! Plese login or register!



American Horror Story [Sezon 2] PL.WEB-DL.XviD-DeiX *LEKTOR PL*

Release : American.Horror.Story.S02E01.PL.WEB-DL.XviD-DeiX
Format : AVI
Length : 350 MiB (44mn 15s 840ms)
Video #0 : XVID | 624x352 (16:9) | 25.000FPS | 967 Kbps
Audio #0 : MPEG Audio | 2 channels, 48.0 KHz | 128 Kbps

DOWNLOAD: Catshare | Rapidu | Fileshark | Uploadable
Linki zabezpieczone. Wklej adres do przeglądarki aby uzyskać dostęp.
Uwaga! Linki nie zakodowane tylko dla zarejestrowanych użytkowników!

Nie masz konta? Zarejestruj się za darmo!
----------------
Links are not encoded only for registered users only! Plese login or register!



American Horror Story [Sezon 3] PL.WEB-DL.XviD-CAMBiO *LEKTOR PL*

Release : American.Horror.Story.S03E01.PL.WEB-DL.XviD-CAMBiO
Format : AVI
Length : 400 MiB (49mn 12s 408ms)
Video #0 : XVID | 640x352 (16:9) | 23.976FPS | 999 Kbps
Audio #0 : MPEG Audio | 2 channels, 48.0 KHz | 128 Kbps

DOWNLOAD: Catshare | Rapidu | Fileshark | Uploadable
Linki zabezpieczone. Wklej adres do przeglądarki aby uzyskać dostęp.
Uwaga! Linki nie zakodowane tylko dla zarejestrowanych użytkowników!

Nie masz konta? Zarejestruj się za darmo!
----------------
Links are not encoded only for registered users only! Plese login or register!



American Horror Story [Sezon 4] PL.WEB-DL.XviD-KiT *LEKTOR PL*

Release : American.Horror.Story.S04E04.PL.WEB-DL.XviD-KiT
Format : AVI
Length : 400 MiB (46mn 22s 405ms)
Video #0 : XVID | 640x352 (16:9) | 23.976FPS | 1 069 Kbps
Audio #0 : MPEG Audio | 2 channels, 48.0 KHz | 128 Kbps

DOWNLOAD: Catshare | Rapidu | Fileshark | Uploadable
Linki zabezpieczone. Wklej adres do przeglądarki aby uzyskać dostęp.
Uwaga! Linki nie zakodowane tylko dla zarejestrowanych użytkowników!

Nie masz konta? Zarejestruj się za darmo!
----------------
Links are not encoded only for registered users only! Plese login or register!




.

Informacje

Jeżeli chcesz skomentować artykuł musisz być zarejestrowany na stronie.