EXSite.pl - Portal ze wszystkim Mamy tutaj wszystko

NIE MASZ JESZCZE KONTA? ZAREJESTRUJ SIĘ ZA DARMO!   
Przypomnij hasło X

Liga światowa Siatkarzy 2012: Polska vs Brazylia - 03.06.2012 PL.DVBRip.XviD-pietras44

Dodał: pietras44 4 Czerwiec 2012 13:25


Liga światowa Siatkarzy 2012: Polska vs Brazylia - 03.06.2012 PL.DVBRip.XviD-pietras44Liga światowa Siatkarzy 2012: Polska vs Brazylia - 03.06.2012 PL.DVBRip.XviD-pietras44
Polska vs Brazylia - 03.06.2012
Liga światowa

624 x 352 | 16:9 | XviD | DVBRip | ~1024 kbps | Nagranie: pietras44 | Polsat Sport Komentarz PL

#INFO
Polska.vs.Brazylia.cz1.03.06.2012.PL.XviD.DVBRip.pietras44.avi

Plik : 435 MB (435 MB), czas 0:52:13, rodzaj: AVI, 1 ścieżka(i) audio, jakość 55 %, ,
Video : 387 MB, 1037 Kbps, 25.0 fps, rozdz. 624*352 (16:9), XVID = XVID Mpeg-4, Obsługiwane
Audio : 47 MB, 128 Kbps, 48000 Hz, 2 kanał(y), 0x55 = MPEG Layer-3, VBR, , Obsługiwane

Polska.vs.Brazylia.cz2.03.06.2012.PL.XviD.DVBRip.pietras44.avi

Plik : 435 MB (435 MB), czas 0:52:13, rodzaj: AVI, 1 ścieżka(i) audio, jakość 55 %, ,
Video : 387 MB, 1037 Kbps, 25.0 fps, rozdz. 624*352 (16:9), XVID = XVID Mpeg-4, Obsługiwane
Audio : 47 MB, 128 Kbps, 48000 Hz, 2 kanał(y), 0x55 = MPEG Layer-3, VBR, , Obsługiwane

Polska.vs.Brazylia.cz3.03.06.2012.PL.XviD.DVBRip.pietras44.avi

Plik : 434 MB (434 MB), czas 0:52:13, rodzaj: AVI, 1 ścieżka(i) audio, jakość 55 %, ,
Video : 387 MB, 1036 Kbps, 25.0 fps, rozdz. 624*352 (16:9), XVID = XVID Mpeg-4, Obsługiwane
Audio : 47 MB, 128 Kbps, 48000 Hz, 2 kanał(y), 0x55 = MPEG Layer-3, VBR, , Obsługiwane


Opis uploadu:
wielkość całości: 1,27 GB
długość całości: 2:36:39
rodzaj kompresji: brak
zawartość uploadu: 3 plików avi
wersja językowa: Polska
dane naprawcze: brak

#DOWNLOAD
1 link = 1 część:
Uwaga! Linki nie zakodowane tylko dla zarejestrowanych użytkowników!

Nie masz konta? Zarejestruj się za darmo!
----------------
Links are not encoded only for registered users only! Plese login or register!


proszę o nie robienie reuploadów moich nagra?

Użytkownik VIP

istreamUżytkownik

#1 | Dodany: 5 Czerwiec 2012 11:53

Polska - Brazylia

TVRip | Polsat Sport HD | MP4 | XviD 2000-14,200 kbps | 768x432 | 2,37 GB | 2:42:22


Format : MPEG-4
Format profile : Base Media / Version 2
Codec ID : mp42
File size : 2.37 GiB
Duration : 2h 42mn
Overall bit rate mode : Variable
Overall bit rate : 2 092 Kbps
Encoded date : UTC 2012-06-04 04:13:31
Tagged date : UTC 2012-06-04 04:19:30
Writing application : mp4creator 1.6.1d

Video
ID : 1
Format : MPEG-4 Visual
Format profile : Simple@L1
Format settings, BVOP : No
Format settings, QPel : No
Format settings, GMC : No warppoints
Format settings, Matrix : Default (H.263)
Codec ID : 20
Duration : 2h 42mn
Bit rate mode : Variable
Bit rate : 1 964 Kbps
Maximum bit rate : 14.2 Mbps
Width : 768 pixels
Height : 432 pixels
Display aspect ratio : 16:9
Frame rate mode : Constant
Frame rate : 25.000 fps
Color space : YUV
Chroma subsampling : 4:2:0
Bit depth : 8 bits
Scan type : Progressive
Compression mode : Lossy
Bits/(Pixel*Frame) : 0.237
Stream size : 2.23 GiB (94%)
Language : English
Encoded date : UTC 2012-06-04 04:13:31
Tagged date : UTC 2012-06-04 04:19:24

Audio
ID : 2
Format : AAC
Format/Info : Advanced Audio Codec
Format profile : LC
Codec ID : 40
Duration : 2h 42mn
Source duration : 2h 42mn
Bit rate mode : Variable
Bit rate : 126 Kbps
Maximum bit rate : 174 Kbps
Channel(s) : 2 channels
Channel positions : Front: L R
Sampling rate : 44.1 KHz
Compression mode : Lossy
Stream size : 146 MiB (6%)
Source stream size : 146 MiB
Language : English
Encoded date : UTC 2012-06-04 04:19:24
Tagged date : UTC 2012-06-04 04:19:30


http://www.speedyshare.com/fKVpt/Polska-Brazylia.03.06.2012.DVBRip.LevyTV.mp4

Informacje

Jeżeli chcesz skomentować artykuł musisz być zarejestrowany na stronie.