EXSite.pl - Portal ze wszystkim Mamy tutaj wszystko

NIE MASZ JESZCZE KONTA? ZAREJESTRUJ SIĘ ZA DARMO!   
Przypomnij hasło X

Dani Daniels - We Live Together – Give And Take AVI.Upload.dla.exsite.pl

Dodał: SebaSTI 10 Styczeń 2012 19:22


Dani Daniels - We Live Together – Give And Take AVI.Upload.dla.exsite.pl


Format : AVI

File size : 227 MiB
Duration : 36mn 2s
Overall bit rate : 879 Kbps
Writing library : MPlayer

Video

Codec ID : XVID
Duration : 36mn 2s
Bit rate : 767 Kbps
Width : 320 pixels
Height : 240 pixels
Display aspect ratio : 4:3
Frame rate : 25.000 fps
Color space : YUV
Chroma subsampling : 4:2:0
Bit depth : 8 bits
Scan type : Progressive
Bits/(Pixel*Frame) : 0.399
Stream size : 198 MiB (87%)
Writing library : XviD 1.2.1 (UTC 2008-12-04)

Audio

Format : MPEG Audio
Codec ID/Hint : MP3
Duration : 36mn 2s
Bit rate : 32.0 Kbps
Channel(s) : 2 channels
Sampling rate : 44.1 KHz
Stream size : 25.8 MiB (11%)





Dani Daniels - We Live Together – Give And Take AVI.Upload.dla.exsite.pl
Uwaga! Linki nie zakodowane tylko dla zarejestrowanych użytkowników!

Nie masz konta? Zarejestruj się za darmo!
----------------
Links are not encoded only for registered users only! Plese login or register!



Dani Daniels - We Live Together – Give And Take AVI.Upload.dla.exsite.pl

Informacje

Jeżeli chcesz skomentować artykuł musisz być zarejestrowany na stronie.