EXSite.pl - Portal ze wszystkim Mamy tutaj wszystko

NIE MASZ JESZCZE KONTA? ZAREJESTRUJ SIĘ ZA DARMO!   
Przypomnij hasło X

Carolline - Brunette Beauty In Oil

Dodał: Download Killer 2 Luty 2012 19:30


Format: Flash Video
File size: 161 MiB
Duration: 52mn 28s
Overall bit rate: 430 Kbps

Video format: AVC
Width: 480 pixels
Height: 272 pixels
Display aspect ratio: 16:9
Frame rate: 29.970 fps
Stream size: 136 MiB (85%)

Audio format: AAC
Bit rate: 62.7 Kbps
Channel(s): 2 channels
Stream size: 24.4 MiB (15%)


Carolline - Brunette Beauty In Oil


Link / Download
http://uploaded.to/file/btxwv4b4

Lub / Or
http://turbobit.net/axm6c34i9u33.html

Użytkownik VIP

kazaszek1Użytkownik

#1 | Dodany: 2 Luty 2012 20:12

Sety Zdjęc Amatorek / Party 70-90 Mb !

http://turbobit.net/tjb3em6f9mxq.html
http://turbobit.net/wq9eaq7u2vgp.html
http://turbobit.net/8s7oy4gjdyl3.html
http://turbobit.net/vn2eu3l6czpg.html
http://turbobit.net/u0hpta9hhnl4.html
http://turbobit.net/h9f17hgp9620.html
http://turbobit.net/a0ij9ask5t7x.html
http://turbobit.net/d9aen0fmit29.html


Filmiki Ivona Fak A Lot / 100-300 MB

http://turbobit.net/858j3lwm2l90.html
http://turbobit.net/damynded0mm1.html
http://turbobit.net/z8ntd4hl017x.html
http://turbobit.net/0d1kpm8x924w.html
http://turbobit.net/41jdu95ikrzk.html
http://turbobit.net/a57k3n1rttjl.html
Użytkownik VIP

Download KillerUploader

#2 | Dodany: 2 Luty 2012 21:37

kazaszek1,
spam ban
Spragniony anime, mangi i info z Japonii? Klikaj:
Projekt K7 M&A


Moje dotychczasowe publikacje na EXSite
http://exsite.pl/user/Download+Killer/news

Informacje

Jeżeli chcesz skomentować artykuł musisz być zarejestrowany na stronie.