EXSite.pl - Portal ze wszystkim Mamy tutaj wszystko

NIE MASZ JESZCZE KONTA? ZAREJESTRUJ SIĘ ZA DARMO!   
Przypomnij hasło X

Like Sister Like Slut XXX 720p BRRip Xvid AC3 CARNAL

Dodał: xXxMateusz00xXx 15 Luty 2012 20:48


Like Sister Like Slut XXX 720p BRRip Xvid AC3 CARNAL

Like Sister Like Slut XXX 720p BRRip Xvid AC3 CARNAL

Like Sister Like Slut XXX 720p BRRip Xvid AC3 CARNAL


Like Sister Like Slut XXX 720p BRRip Xvid AC3 CARNAL
Like Sister Like Slut XXX 720p BRRip Xvid AC3 CARNAL




Format                           : AVI
Format/Info                      : Audio Video Interleave
File size                        : 1.86 GiB
Duration                         : 1h 28mn
Overall bit rate                 : 3 019 Kbps
Writing application              : VirtualDubMod 1.5.10.2 (build 2540/release)
Writing library                  : VirtualDubMod build 2540/release

Video
ID                               : 0
Format                           : MPEG-4 Visual
Format profile                   : Advanced Simple@L5
Format settings, BVOP            : 1
Format settings, QPel            : No
Format settings, GMC             : No warppoints
Format settings, Matrix          : Default (H.263)
Codec ID                         : XVID
Codec ID/Hint                    : XviD
Duration                         : 1h 28mn
Bit rate                         : 2 562 Kbps
Width                            : 1 280 pixels
Height                           : 720 pixels
Display aspect ratio             : 16:9
Frame rate                       : 23.976 fps
Color space                      : YUV
Chroma subsampling               : 4:2:0
Bit depth                        : 8 bits
Scan type                        : Progressive
Compression mode                 : Lossy
Bits/(Pixel*Frame)               : 0.116
Stream size                      : 1.58 GiB (85%)
Writing library                  : XviD 1.2.1 (UTC 2008-12-04)

Audio
ID                               : 1
Format                           : AC-3
Format/Info                      : Audio Coding 3
Mode extension                   : CM (complete main)
Codec ID                         : 2000
Duration                         : 1h 28mn
Bit rate mode                    : Constant
Bit rate                         : 448 Kbps
Channel(s)                       : 6 channels
Channel positions                : Front: L C R, Side: L R, LFE
Sampling rate                    : 48.0 KHz
Bit depth                        : 16 bits
Compression mode                 : Lossy
Stream size                      : 283 MiB (15%)
Alignment                        : Aligned on interleaves
Interleave, duration             : 42 ms (1.00 video frame)
Interleave, preload duration     : 512 ms





Like Sister Like Slut XXX 720p BRRip Xvid AC3 CARNAL

Uwaga! Linki nie zakodowane tylko dla zarejestrowanych użytkowników!

Nie masz konta? Zarejestruj się za darmo!
----------------
Links are not encoded only for registered users only! Plese login or register!



Można pobierać na przemian


Uwaga! Linki nie zakodowane tylko dla zarejestrowanych użytkowników!

Nie masz konta? Zarejestruj się za darmo!
----------------
Links are not encoded only for registered users only! Plese login or register!



Można pobierać na przemian


Uwaga! Linki nie zakodowane tylko dla zarejestrowanych użytkowników!

Nie masz konta? Zarejestruj się za darmo!
----------------
Links are not encoded only for registered users only! Plese login or register!






Zobacz inne moje newsy na EXSite.pl

Użytkownik VIP

xXxMateusz00xXxUżytkownik

#1 | Dodany: 15 Luty 2012 20:49

ok
Użytkownik VIP

Mariusz (Mario)Użytkownik

#2 | Dodany: 15 Luty 2012 20:50

:) niezła wrzuta :)

Informacje

Jeżeli chcesz skomentować artykuł musisz być zarejestrowany na stronie.