EXSite.pl - Portal ze wszystkim Mamy tutaj wszystko

NIE MASZ JESZCZE KONTA? ZAREJESTRUJ SIĘ ZA DARMO!   
Przypomnij hasło X

Mature bitch take everythigs

Dodał: Download Killer 23 Listopad 2012 19:44


Mature bitch take everythigsMature bitch take everythigs
Mature bitch take everythigsMature bitch take everythigs


General
Format                         : MPEG-4
File size                      : 308 MiB
Duration                       : 1h 26mn
Overall bit rate               : 498 Kbps

Video
Format                         : AVC
Bit rate                       : 374 Kbps
Nominal bit rate               : 400 Kbps
Width                          : 432 pixels
Height                         : 240 pixels
Display aspect ratio           : 16:9
Frame rate mode                : Constant
Frame rate                     : 24.000 fps
Stream size                    : 231 MiB (75%)

Audio
Format                         : AAC
Bit rate                       : 96.0 Kbps
Channel(s)                     : 2 channels
Sampling rate                  : 44.1 KHz
Stream size                    : 59.3 MiB (19%)


Download:
http://egofiles.com/9DYLAIhhMkMTwJNp

Lub/Or
http://turbobit.net/0evj7j2to2uh.html

Użytkownik VIP

ja to ten złyUżytkownik

#1 | Dodany: 24 Listopad 2012 05:25

Killa Ty zbocze?cu... hehe Spoko!
Użytkownik VIP

Download KillerUploader

#2 | Dodany: 24 Listopad 2012 17:20

Cytat: ja to ten zły
Killa Ty zbocze?cu... hehe Spoko!

No co? wink
Na pornusach przynajmniej kasa leci, bo resztę upów ludziska nie chcą pobierać feel
Spragniony anime, mangi i info z Japonii? Klikaj:
Projekt K7 M&A


Moje dotychczasowe publikacje na EXSite
http://exsite.pl/user/Download+Killer/news

Informacje

Jeżeli chcesz skomentować artykuł musisz być zarejestrowany na stronie.