EXSite.pl - Portal ze wszystkim Mamy tutaj wszystko

NIE MASZ JESZCZE KONTA? ZAREJESTRUJ SIĘ ZA DARMO!   
Przypomnij hasło X

Russian Alexandra has wide mouth & ass

Dodał: Download Killer 28 Listopad 2012 19:28


General
Complete name : Russian Alexandra has wide mouth & ass.mp4
Format : MPEG-4
File size : 209 MiB
Duration : 16mn 53s
Overall bit rate mode : Variable
Overall bit rate : 1 733 Kbps

Video
Format : AVC
Format profile : High@L3.2
Bit rate mode : Variable
Bit rate : 1 600 Kbps
Width : 640 pixels
Height : 360 pixels
Display aspect ratio : 16:9
Frame rate mode : Constant
Frame rate : 50.000 fps
Stream size : 193 MiB (92%)

Audio
Format : AAC
Bit rate mode : Variable
Bit rate : 125 Kbps
Maximum bit rate : 167 Kbps
Channel(s) : 2 channels
Sampling rate : 48.0 KHz
Stream size : 15.1 MiB (7%)


Russian Alexandra has wide mouth & ass
Russian Alexandra has wide mouth & ass
Russian Alexandra has wide mouth & ass


DOWNLOAD
http://egofiles.com/fWmiBCGmWgADt7J8

lub/or
http://turbobit.net/7108nkfgyabh.html

Informacje

Jeżeli chcesz skomentować artykuł musisz być zarejestrowany na stronie.