EXSite.pl - Portal ze wszystkim Mamy tutaj wszystko

NIE MASZ JESZCZE KONTA? ZAREJESTRUJ SIĘ ZA DARMO!   
Przypomnij hasło X

Nova Brooks (Getting All Holes Covered)

Dodał: Download Killer 1 Grudzień 2012 12:01


General
Complete name : Nova Brooks (Getting All Holes Covered).mp4
Format : MPEG-4
File size : 323 MiB
Duration : 42mn 14s
Overall bit rate mode : Variable
Overall bit rate : 1 071 Kbps

Video
Format : AVC
Format profile : Main@L3.0
Duration : 42mn 14s
Bit rate : 1 000 Kbps
Width : 720 pixels
Height : 404 pixels
Display aspect ratio : 16:9
Frame rate mode : Constant
Frame rate : 29.970 fps
Stream size : 300 MiB (93%)

Audio
Format : AAC
Bit rate mode : Variable
Bit rate : 69.7 Kbps
Maximum bit rate : 96.0 Kbps
Channel(s) : 2 channels
Channel positions : Front: L R
Sampling rate : 44.1 KHz
Stream size : 21.0 MiB (7%)


Nova Brooks (Getting All Holes Covered)
Nova Brooks (Getting All Holes Covered)
Nova Brooks (Getting All Holes Covered)


Download:
http://egofiles.com/HZm3B9RcACNBYm9g

http://turbobit.net/d505rcic1o4d.html

http://rapidgator.net/file/60651360/Nova_Brooks_%28Getting_All_Holes_Covered.mp4.html

Informacje

Jeżeli chcesz skomentować artykuł musisz być zarejestrowany na stronie.