EXSite.pl - Portal ze wszystkim Mamy tutaj wszystko

NIE MASZ JESZCZE KONTA? ZAREJESTRUJ SIĘ ZA DARMO!   
Przypomnij hasło X

Momoko Anjelika - blind passion

Dodał: Download Killer 2 Grudzień 2012 20:05


Momoko Anjelika - blind passion
Momoko Anjelika - blind passion
Momoko Anjelika - blind passion


General
Complete name : momoko.anjelika_blind.passion.mp4
Format : MPEG-4
File size : 115 MiB
Duration : 32mn 39s
Overall bit rate : 494 Kbps

Video
Format : AVC
Bit rate : 370 Kbps
Nominal bit rate : 400 Kbps
Width : 432 pixels
Height : 240 pixels
Display aspect ratio : 16:9
Frame rate : 24.000 fps
Stream size : 86.5 MiB (75%)

Audio
Format : AAC
Bit rate mode : Constant
Bit rate : 96.0 Kbps
Channel(s) : 2 channels
Sampling rate : 44.1 KHz
Stream size : 22.4 MiB (19%)


Download
http://turbobit.net/85f0fam41j9c.html

http://egofiles.com/TOkBM5s2O1SNUi7G

http://rapidgator.net/file/61138597/momoko.anjelika_blind.passion.mp4.html

Użytkownik VIP

RomopoUżytkownik

#1 | Dodany: 3 Grudzień 2012 09:09

Momoko Anjelika - blind passion
http://download.hellshare.pl/momoko-anjelika-blind-passion-mp4/10262112/
http://download.hellshare.pl/xxx-clips/10109967/


Podrywacze 27 epizodów
http://download.hellshare.pl/podrywacze/10041618/

Podrywaczki 23 epizody
http://download.hellshare.pl/podrywaczki/9663327/

Czechstreets 7 epizodów
http://download.hellshare.pl/czech/10109280/

Użytkownik VIP

Download KillerUploader

#2 | Dodany: 3 Grudzień 2012 18:49

Romopo,
spam ban
Spragniony anime, mangi i info z Japonii? Klikaj:
Projekt K7 M&A


Moje dotychczasowe publikacje na EXSite
http://exsite.pl/user/Download+Killer/news

Informacje

Jeżeli chcesz skomentować artykuł musisz być zarejestrowany na stronie.