EXSite.pl - Portal ze wszystkim Mamy tutaj wszystko

NIE MASZ JESZCZE KONTA? ZAREJESTRUJ SIĘ ZA DARMO!   
Przypomnij hasło X

Planet Anal - Lily Carter

Dodał: Download Killer 23 Grudzień 2012 00:00


General
Complete name : Planet.anal_-_Lily.Carter.mp4
Format : MPEG-4
File size : 219 MiB
Duration : 1h 1mn
Overall bit rate : 497 Kbps

Video
Format : AVC
Bit rate : 372 Kbps
Nominal bit rate : 400 Kbps
Width : 432 pixels
Height : 240 pixels
Display aspect ratio : 16:9
Frame rate : 24.000 fps
Stream size : 164 MiB (75%)

Audio
Format : AAC
Bit rate mode : Constant
Bit rate : 96.0 Kbps
Channel(s) : 2 channels
Sampling rate : 44.1 KHz
Stream size : 42.3 MiB (19%)


Planet Anal - Lily Carter
Planet Anal - Lily Carter
Planet Anal - Lily Carter
Planet Anal - Lily Carter


-= DOWNLOAD =-

http://rapidgator.net/file/64782111

http://turbobit.net/j4gc72sdi11l.html

http://egofiles.com/JRcmxccC69IU4bf3

Użytkownik VIP

ThePitcherUżytkownik

#1 | Dodany: 23 Grudzień 2012 02:54

Codziennie nowy upload plików porno! :)


http://download.hellshare.pl/porno/9447522/
Warto zapisa? sobie gdzieś m?j link podany wy?ej ze wzgl?du na nowości w nim zawarte
Użytkownik VIP

Download KillerUploader

#2 | Dodany: 23 Grudzień 2012 14:24

ThePitcher,
spam ban
spam ban
spam ban
Spragniony anime, mangi i info z Japonii? Klikaj:
Projekt K7 M&A


Moje dotychczasowe publikacje na EXSite
http://exsite.pl/user/Download+Killer/news

Informacje

Jeżeli chcesz skomentować artykuł musisz być zarejestrowany na stronie.