EXSite.pl - Portal ze wszystkim Mamy tutaj wszystko

NIE MASZ JESZCZE KONTA? ZAREJESTRUJ SIĘ ZA DARMO!   
Przypomnij hasło X

Anal Angel Rivas

Dodał: Download Killer 13 Styczeń 2013 18:13


General
Format : AVI
File size : 237 MiB
Duration : 24mn 42s
Overall bit rate mode : Variable
Overall bit rate : 1 342 Kbps

Video
Format : MPEG-4 Visual
Bit rate : 1 196 Kbps
Width : 608 pixels
Height : 336 pixels
Display aspect ratio : 16:9
Frame rate : 29.970 fps
Stream size : 211 MiB (89%)

Audio
Format : MPEG Audio
Bit rate mode : Variable
Bit rate : 135 Kbps
Channel(s) : 2 channels
Sampling rate : 48.0 KHz
Stream size : 23.4 MiB (10%)


Anal Angel Rivas
Anal Angel Rivas
Anal Angel Rivas


Download:
http://rapidgator.net/file/70562622

http://egofiles.com/8rG8GzJdLU4ZtLyK

http://turbobit.net/hvrh4mnjbahk.html

Informacje

Jeżeli chcesz skomentować artykuł musisz być zarejestrowany na stronie.