EXSite.pl - Portal ze wszystkim Mamy tutaj wszystko

NIE MASZ JESZCZE KONTA? ZAREJESTRUJ SIĘ ZA DARMO!   
Przypomnij hasło X

My friend's HOT MOM: Jessica Jaymes & Bill Bailey [480p]

Dodał: Download Killer 17 Luty 2013 12:52


General
Format                                   : MPEG-4
File size                                : 255 MiB
Duration                                 : 23mn 14s
Overall bit rate                         : 1 536 Kbps

Video
Format                                   : AVC
Format profile                           : High@L3.0
Bit rate                                 : 1 400 Kbps
Width                                    : 854 pixels
Height                                   : 480 pixels
Display aspect ratio                     : 16:9
Frame rate mode                          : Constant
Frame rate                               : 30.000 fps
Stream size                              : 233 MiB (91%)

Audio
Format                                   : AAC
Bit rate mode                            : Constant
Bit rate                                 : 128 Kbps
Channel(s)                               : 2 channels
Channel positions                        : Front: L R
Sampling rate                            : 44.1 KHz
Stream size                              : 21.2 MiB (8%)

My friend's HOT MOM: Jessica Jaymes & Bill Bailey [480p]

Download:
Uwaga! Linki nie zakodowane tylko dla zarejestrowanych użytkowników!

Nie masz konta? Zarejestruj się za darmo!
----------------
Links are not encoded only for registered users only! Plese login or register!

Uwaga! Linki nie zakodowane tylko dla zarejestrowanych użytkowników!

Nie masz konta? Zarejestruj się za darmo!
----------------
Links are not encoded only for registered users only! Plese login or register!

Użytkownik VIP

ostlaryUżytkownik

#1 | Dodany: 17 Luty 2013 13:42

Jessica Jaymes & Bill Bailey in My Friends Hot Mom [MyFriendsHotMom/NaughtyAmerica] am
→Eh→
Użytkownik VIP

imnyUżytkownik

#2 | Dodany: 17 Luty 2013 14:47

My friend's HOT MOM: Jessica Jaymes & Bill Bailey [480p]

http://freakshare.com/files/tw7066iz/12_HOT.MOM_Jessica.mp4.html
 Uzytkownik dla Uzytkownika  Gwarancja Jakości! 

Informacje

Jeżeli chcesz skomentować artykuł musisz być zarejestrowany na stronie.