EXSite.pl - Portal ze wszystkim Mamy tutaj wszystko

NIE MASZ JESZCZE KONTA? ZAREJESTRUJ SIĘ ZA DARMO!   
Przypomnij hasło X

3dxstar Ally Kay SBS 1080p 3D

Dodał: peilo 15 Kwiecień 2013 19:07


3dxstar Ally Kay SBS 1080p 3D

3dxstar Ally Kay SBS 1080p   3D

3dxstar Ally Kay SBS 1080p   3D
3dxstar Ally Kay SBS 1080p 3D

3dxstar Ally Kay SBS 1080p 3D

General
Complete name : tf_ally_kay_sbs_1080p_8000.mp4
Format : MPEG-4
Format profile : Base Media
Codec ID : isom
File size : 1.59 GiB
Duration : 27mn 20s
Overall bit rate : 8 330 Kbps
Writing application : Lavf52.102.0

Video
ID : 1
Format : AVC
Format/Info : Advanced Video Codec
Format profile : High@L5.0
Format settings, CABAC : Yes
Format settings, ReFrames : 5 frames
Format settings, GOP : M=1, N=60
Codec ID : avc1
Codec ID/Info : Advanced Video Coding
Duration : 27mn 20s
Bit rate mode : Variable
Bit rate : 8 000 Kbps
Width : 1 920 pixels
Height : 1 080 pixels
Display aspect ratio : 16:9
Frame rate mode : Constant
Frame rate : 29.970 fps
Color space : YUV
Chroma subsampling : 4:2:0
Bit depth : 8 bits
Scan type : Progressive
Bits/(Pixel*Frame) : 0.129
Stream size : 1.50 GiB (95%)
Writing library : x264 core 114 r1913 5fd3dce
Encoding settings : cabac=1 / ref=5 / deblock=1:0:0 / analyse=0x3:0x113 / me=umh / subme=8 / psy=1 / psy_rd=1.00:0.00 / mixed_ref=1 / me_range=16 / chroma_me=1 / trellis=1 / 8x8dct=1 / cqm=0 / deadzone=21,11 / fast_pskip=1 / chroma_qp_offset=-2 / threads=3 / sliced_threads=0 / nr=0 / decimate=1 / interlaced=0 / constrained_intra=0 / bframes=3 / b_pyramid=2 / b_adapt=2 / b_bias=0 / direct=3 / weightb=1 / open_gop=0 / weightp=2 / keyint=60 / keyint_min=25 / scenecut=40 / intra_refresh=0 / rc_lookahead=50 / rc=abr / mbtree=1 / bitrate=8000 / ratetol=1.0 / qcomp=0.60 / qpmin=10 / qpmax=51 / qpstep=4 / ip_ratio=1.41 / aq=1:1.00
Language : English
Tagged date : UTC 2011-05-02 12:06:01

Audio
ID : 2
Format : AAC
Format/Info : Advanced Audio Codec
Format profile : LC
Codec ID : 40
Duration : 27mn 20s
Bit rate mode : Variable
Bit rate : 107 Kbps
Channel(s) : 2 channels
Channel positions : Front: L R
Sampling rate : 48.0 KHz
Compression mode : Lossy
Stream size : 20.9 MiB (1%)
Language : English
Tagged date : UTC 2011-05-02 12:06:01




3dxstar Ally Kay SBS 1080p   3D
Uwaga! Linki nie zakodowane tylko dla zarejestrowanych użytkowników!

Nie masz konta? Zarejestruj się za darmo!
----------------
Links are not encoded only for registered users only! Plese login or register!




Zobacz inne moje newsy na EXSite.pl

Użytkownik VIP

wilimiliVIP

#1 | Dodany: 15 Kwiecień 2013 22:45

3dxstar Ally Kay SBS 1080p 3D
Format : MPEG-4
Format profile : Base Media
Codec ID : isom
File size : 1.59 GiB
Duration : 27mn 20s
Overall bit rate : 8 330 Kbps


Uwaga! Linki nie zakodowane tylko dla zarejestrowanych użytkowników!

Nie masz konta? Zarejestruj się za darmo!
----------------
Links are not encoded only for registered users only! Plese login or register!
Użytkownik VIP

TajniUżytkownik

#2 | Dodany: 21 Kwiecień 2013 11:35

thx
Użytkownik VIP

bertol2Użytkownik

#3 | Dodany: 7 Maj 2013 15:22

ok
Użytkownik VIP

kerios83Użytkownik

#4 | Dodany: 6 Październik 2013 21:15

thx

Informacje

Jeżeli chcesz skomentować artykuł musisz być zarejestrowany na stronie.