EXSite.pl - Portal ze wszystkim Mamy tutaj wszystko

NIE MASZ JESZCZE KONTA? ZAREJESTRUJ SIĘ ZA DARMO!   
Przypomnij hasło X

Die Welt der Lust Erotische Phantasien Vol1 3D (SBS) 1080p.BluRay.x264

Dodał: HOOLIMAN 26 Marzec 2012 17:49


Die Welt der Lust Erotische Phantasien Vol1 3D (SBS) 1080p.BluRay.x264

Die Welt der Lust Erotische Phantasien Vol1 3D (SBS) 1080p.BluRay.x264

Die Welt der Lust Erotische Phantasien Vol1 3D (SBS) 1080p.BluRay.x264
Film w wersji 3D Side-by-Side.
Do odtworzenia filmu WYMAGANY odpowiedni sprzęt (TV 3D).


Hei?e Erotik aus Frankreich: In abwechslungsreichen Stories wird elektrisierende Erotik vom Feinsten pr?sentiert. In Volume 1 der lustvollen Serie bereiten Ihnen verf?hrerische Zimmerm?dchen und l?sterne Krankenschwestern eine unvergessliche Zeit und garantieren feuchte Tr?ume.

General:

Format : Matroska (MKV)
File size : 6.58 GiB
Duration : 58mn 11s
Overall bit rate : 16.2 Mbps

Video:

Format : AVC
Format profile : High@L5.1
Duration : 58mn 11s
Bit rate : 15.7 Mbps
Width : 1 920 pixels
Height : 1 080 pixels
Display aspect ratio : 16:9
Frame rate : 23.976 fps
Stream size : 6.37 GiB (97%)

Audio:

Format : AC-3
Duration : 58mn 11s
Bit rate : 192 Kbps
Channel(s) : 2 channels
Channel positions : Front: L R
Sampling rate : 48.0 KHz
Bit depth : 16 bits
Stream size : 79.9 MiB (1%)
Language : German

Przykładowa instrukcja jak odpalić film 3D SBS na TV Samsunga
Kopiujesz film na zewnętrzny dysk twardy lub pen-drive i podłączasz do gniazda USB w TV. Na telewizorze pojawią się dwie opcje do wyboru, jedna to aktualizacja oprogramowania a druga Media Play, wybierasz Media Play i otwiera się program samsunga do odtwarzania plików multimedialnych, wchodzisz w zakładkę "filmy" i tam będą wszystkie filmy które masz na Dysku lub Pendrive. Odpalasz film 3D Side-by-Side i na pilocie z telewizora wciskasz guzik 3D a następnie wybierasz tryb "obraz obok obrazu", pozostaje tylko założyć i włączyć okulary i cieszymy się świetnymi efektami 3D :)



Die Welt der Lust Erotische Phantasien Vol1 3D (SBS) 1080p.BluRay.x264
Uwaga! Linki nie zakodowane tylko dla zarejestrowanych użytkowników!

Nie masz konta? Zarejestruj się za darmo!
----------------
Links are not encoded only for registered users only! Plese login or register!




Zobacz inne moje newsy na EXSite.pl

Użytkownik VIP

cacumenUżytkownik

#1 | Dodany: 27 Marzec 2012 14:48

ok brawo thx
Użytkownik VIP

tajlandiaUżytkownik

#2 | Dodany: 1 Kwiecień 2012 09:21

thx taniec brawo
Użytkownik VIP

kamanczykUżytkownik

#3 | Dodany: 2 Kwiecień 2012 19:59

Hooli kiedy NETLOAD ??
Intel I5 4690k
RAM 12GB
RADEON 7850 2GB
OCZ VERTEX 4 120 GB

Informacje

Jeżeli chcesz skomentować artykuł musisz być zarejestrowany na stronie.