EXSite.pl - Portal ze wszystkim Mamy tutaj wszystko

NIE MASZ JESZCZE KONTA? ZAREJESTRUJ SIĘ ZA DARMO!   
Przypomnij hasło X

Die Welt der Lust Erotische Phantasien Vol2 3D (SBS) 1080p.BluRay.x264

Dodał: HOOLIMAN 26 Marzec 2012 20:08


Die Welt der Lust Erotische Phantasien Vol2 3D (SBS) 1080p.BluRay.x264

Die Welt der Lust Erotische Phantasien Vol2 3D (SBS) 1080p.BluRay.x264

Die Welt der Lust Erotische Phantasien Vol2 3D (SBS) 1080p.BluRay.x264
Film w wersji 3D Side-by-Side.
Do odtworzenia filmu WYMAGANY odpowiedni sprzęt (TV 3D).


Sexy und erotische Tr?ume. Pures sinnliches Vergn?gen.
Hei?e Erotik aus Frankreich: In abwechslungsreichen Stories wird elektrisierende Erotik vom Feinsten pr?sentiert. In Volume 2 der lustvollen Serie bereiten Ihnen hei?e Clubgirls, liebestolle Klostersch?lerinnen, lesbische Gespielinnen im Frauengef?ngnis und zeigefreudige Fotomodels eine unvergessliche Zeit und garantieren feuchte Tr?ume.
Wer erotische Geschichten liebt, liebt Die Welt der Lust.

General:

Format : Matroska (MKV)
File size : 6.94 GiB
Duration : 57mn 46s
Overall bit rate : 17.2 Mbps

Video:

Format : AVC
Format profile : High@L5.1
Duration : 57mn 46s
Bit rate : 16.7 Mbps
Width : 1 920 pixels
Height : 1 080 pixels
Display aspect ratio : 16:9
Frame rate : 23.976 fps
Stream size : 6.72 GiB (97%)

Audio:

Format : AC-3
Duration : 57mn 46s
Bit rate : 192 Kbps
Channel(s) : 2 channels
Channel positions : Front: L R
Sampling rate : 48.0 KHz
Stream size : 79.3 MiB (1%)
Language : German


Przykładowa instrukcja jak odpalić film 3D SBS na TV Samsunga
Kopiujesz film na zewnętrzny dysk twardy lub pen-drive i podłączasz do gniazda USB w TV. Na telewizorze pojawią się dwie opcje do wyboru, jedna to aktualizacja oprogramowania a druga Media Play, wybierasz Media Play i otwiera się program samsunga do odtwarzania plików multimedialnych, wchodzisz w zakładkę "filmy" i tam będą wszystkie filmy które masz na Dysku lub Pendrive. Odpalasz film 3D Side-by-Side i na pilocie z telewizora wciskasz guzik 3D a następnie wybierasz tryb "obraz obok obrazu", pozostaje tylko założyć i włączyć okulary i cieszymy się świetnymi efektami 3D :)



Die Welt der Lust Erotische Phantasien Vol2 3D (SBS) 1080p.BluRay.x264
Uwaga! Linki nie zakodowane tylko dla zarejestrowanych użytkowników!

Nie masz konta? Zarejestruj się za darmo!
----------------
Links are not encoded only for registered users only! Plese login or register!




Zobacz inne moje newsy na EXSite.pl

Użytkownik VIP

cacumenUżytkownik

#1 | Dodany: 27 Marzec 2012 14:47

ok brawo thx
Użytkownik VIP

juno99Użytkownik

#2 | Dodany: 2 Kwiecień 2012 21:39

kiedy ten netload?
Użytkownik VIP

jacor21Użytkownik

#3 | Dodany: 15 Kwiecień 2012 01:29

daloby rade na turbobit??please...

Informacje

Jeżeli chcesz skomentować artykuł musisz być zarejestrowany na stronie.