EXSite.pl - Portal ze wszystkim Mamy tutaj wszystko

NIE MASZ JESZCZE KONTA? ZAREJESTRUJ SIĘ ZA DARMO!   
Przypomnij hasło X

Die Welt der Lust Erotische Phantasien Vol3 3D (SBS) 1080p.BluRay.x264

Dodał: HOOLIMAN 27 Marzec 2012 15:14


Die Welt der Lust Erotische Phantasien Vol3 3D (SBS) 1080p.BluRay.x264

Die Welt der Lust Erotische Phantasien Vol3 3D (SBS) 1080p.BluRay.x264

Die Welt der Lust Erotische Phantasien Vol3 3D (SBS) 1080p.BluRay.x264
Film w wersji 3D Side-by-Side.
Do odtworzenia filmu WYMAGANY odpowiedni sprzęt (TV 3D).


Sexy erotische Tr?ume! Pures sinnliches Vergn?gen! Hei?e Erotik aus Frankreich: In abwechslungsreichen Stories wird elektrisierende Erotik vom Feinsten pr?sentiert. In Volume 3 der lustvollen Serie bereiten Ihnen hei?e Sekret?rinnen, eine feurige Pianistin und l?sterne Krankenschwestern eine unvergessliche Zeit und garantieren feuchte Tr?ume!
Wer erotische Geschichten liebt, liebt Die Welt der Lust

General:

Format : Matroska (MKV)
File size : 6.97 GiB
Duration : 58mn 2s
Overall bit rate : 17.2 Mbps

Video:

Format : AVC
Format profile : High@L5.1
Duration : 58mn 2s
Bit rate : 16.7 Mbps
Width : 1 920 pixels
Height : 1 080 pixels
Display aspect ratio : 16:9
Frame rate : 23.976 fps
Stream size : 6.75 GiB (97%)

Audio:

Format : AC-3
Duration : 58mn 2s
Bit rate : 192 Kbps
Channel(s) : 2 channels
Channel positions : Front: L R
Sampling rate : 48.0 KHz
Stream size : 79.7 MiB (1%)
Language : German


Przykładowa instrukcja jak odpalić film 3D SBS na TV Samsunga
Kopiujesz film na zewnętrzny dysk twardy lub pen-drive i podłączasz do gniazda USB w TV. Na telewizorze pojawią się dwie opcje do wyboru, jedna to aktualizacja oprogramowania a druga Media Play, wybierasz Media Play i otwiera się program samsunga do odtwarzania plików multimedialnych, wchodzisz w zakładkę "filmy" i tam będą wszystkie filmy które masz na Dysku lub Pendrive. Odpalasz film 3D Side-by-Side i na pilocie z telewizora wciskasz guzik 3D a następnie wybierasz tryb "obraz obok obrazu", pozostaje tylko założyć i włączyć okulary i cieszymy się świetnymi efektami 3D :)



Die Welt der Lust Erotische Phantasien Vol3 3D (SBS) 1080p.BluRay.x264
Uwaga! Linki nie zakodowane tylko dla zarejestrowanych użytkowników!

Nie masz konta? Zarejestruj się za darmo!
----------------
Links are not encoded only for registered users only! Plese login or register!




Zobacz inne moje newsy na EXSite.pl

Użytkownik VIP

19GUZOL20Użytkownik

#1 | Dodany: 27 Marzec 2012 17:10

Da radę na NETLOAD.
Użytkownik VIP

a508386362Użytkownik

#2 | Dodany: 28 Marzec 2012 10:08

Daj na netload...:)
Użytkownik VIP

lukadulachUżytkownik

#3 | Dodany: 28 Marzec 2012 23:14

mozna te wszystkie erotyki w mini HD
Użytkownik VIP

AGrEST.Użytkownik

#4 | Dodany: 1 Kwiecień 2012 18:22

może byś tak następnym razem k***wa mać nazywał te linki kolejnością partów a nie burdel jak nie wiem co ... loler
ehhh
http://youtu.be/KrVC5dm5fFc

http://youtu.be/gCYcHz2k5x0
Użytkownik VIP

johnymarUżytkownik

#5 | Dodany: 2 Kwiecień 2012 16:28

To będzie ten Netload czy nie ??
Użytkownik VIP

mirq73Użytkownik

#6 | Dodany: 4 Kwiecień 2012 19:43

Kiedy będzie Netload ???
Użytkownik VIP

gacek017Użytkownik

#7 | Dodany: 6 Kwiecień 2012 19:37

Die Welt der Lust Erotische Phantasien Vol3 3D (SBS) 1080p.BluRay.x264

General:

Format : Matroska (MKV)
File size : 6.97 GiB
Duration : 58mn 2s
Overall bit rate : 17.2 Mbps

Video:

Format : AVC
Format profile : High@L5.1
Duration : 58mn 2s
Bit rate : 16.7 Mbps
Width : 1 920 pixels
Height : 1 080 pixels
Display aspect ratio : 16:9
Frame rate : 23.976 fps
Stream size : 6.75 GiB (97%)

Audio:

Format : AC-3
Duration : 58mn 2s
Bit rate : 192 Kbps
Channel(s) : 2 channels
Channel positions : Front: L R
Sampling rate : 48.0 KHz
Stream size : 79.7 MiB (1%)
Language : German


Uwaga! Linki nie zakodowane tylko dla zarejestrowanych użytkowników!

Nie masz konta? Zarejestruj się za darmo!
----------------
Links are not encoded only for registered users only! Plese login or register!

Informacje

Jeżeli chcesz skomentować artykuł musisz być zarejestrowany na stronie.